<?xml version="1.0" standalone="no"?>
<!DOCTYPE svg PUBLIC "-//W3C//DTD SVG 1.1//EN" "http://www.w3.org/Graphics/SVG/1.1/DTD/svg11.dtd" >
<svg xmlns="http://www.w3.org/2000/svg">
<metadata>
This is a custom SVG webfont generated by Font Squirrel.
Copyright   :  2007 Adobe Systems Incorporated All Rights Reserved
Designer    : Robert Slimbach
Foundry URL : httpwwwadobecomtype
</metadata>
<defs>
<font id="ArnoProDisplay" horiz-adv-x="921" >
<font-face units-per-em="2048" ascent="1409" descent="-639" />
<missing-glyph horiz-adv-x="323" />
<glyph unicode=" "  horiz-adv-x="323" />
<glyph unicode="&#x09;" horiz-adv-x="323" />
<glyph unicode="&#xa0;" horiz-adv-x="323" />
<glyph unicode="!" horiz-adv-x="530" d="M205 1180q-2 12 6 28.5t18 20.5q59 18 117 18q35 0 41 -16q0 -18 -9 -133t-26.5 -327t-29.5 -402q-4 -4 -21.5 -1t-19.5 7q-10 137 -30 327.5t-33 319.5t-13 158zM209 72q0 39 31 71q31 27 65 27q39 0 64 -25q31 -33 30 -77q0 -37 -26 -64q-23 -29 -74 -29q-39 0 -63 25 q-27 29 -27 72z" />
<glyph unicode="&#x22;" horiz-adv-x="524" d="M90 1284q8 8 43 36t47 32q4 4 15 -4q4 -12 4 -72q0 -63 -12.5 -178t-20.5 -140q-12 -41 -37 -73q-2 -4 -9 -4t-9 2q-5 350 -21 401zM326 1284q10 16 47 48t45 32l12 -2q6 -10 6 -73.5t-12 -175.5t-23 -136q-23 -63 -36 -78q-2 -4 -9.5 -4t-9.5 2q-4 336 -20 387z" />
<glyph unicode="#" horiz-adv-x="808" d="M39 526q-4 6 11.5 56.5t23.5 52.5q68 -10 155 -10l43 209q-121 0 -161 4q-2 8 13 53t23 47q82 -4 148 -4l49 233q0 2 24.5 12.5t30.5 10.5q2 0 7 -4l-52 -242q0 -10 6 -10l168 -2l54 254q18 14 53 22q8 0 8 -6l-57 -264q0 -6 6 -6q123 0 178 8q4 -12 -14 -49 q-55 -57 -187 -57q-8 0 -8 -9l-43 -192q0 -8 6 -8q133 0 174 8q6 -16 -6 -41q-63 -72 -188 -72q-4 0 -8 -10l-56 -270q0 -4 -12 -4q-2 0 -17.5 14t-17.5 18q43 209 51 252h-174q-8 0 -8 -8l-61 -274q-2 -4 -13 -5q-6 2 -20 16.5t-16 18.5q8 41 29.5 136.5t25.5 115.5 q-145 0 -168 6zM287 633q0 -8 4 -8h172l45 209h-170q-6 0 -10 -9z" />
<glyph unicode="$" d="M76 305q4 4 16 8t19 2q33 -145 94 -199.5t176 -68.5q8 0 8 6l47 492q0 8 -6 12q-145 88 -217 163t-72 187q0 150 98.5 233t260.5 83q8 0 8 6l14 145q14 10 51 10l-16 -155q0 -6 4 -6q43 -2 131 -19q82 -12 105 -12q-25 -121 -35 -229q-4 -4 -17.5 -6.5t-17.5 4.5 q-4 117 -41 162.5t-129 56.5q-6 0 -6 -6l-47 -465q2 -12 8 -17q76 -41 115 -65.5t93 -68.5t78.5 -96t24.5 -116q0 -145 -98 -237.5t-289 -104.5q-6 0 -6 -8l-16 -162q-37 -6 -49 -6l16 164q0 10 -6 10q-123 4 -262 64q-19 24 -37 239zM270 973q0 -86 48.5 -141.5 t130.5 -104.5q6 -4 10 4l43 443q0 8 -6 8q-111 -6 -168.5 -62.5t-57.5 -146.5zM436 51q0 -6 4 -6q94 2 163 56.5t71 156.5q4 86 -36 147.5t-144 120.5q-2 2 -6.5 0t-4.5 -6z" />
<glyph unicode="%" horiz-adv-x="1275" d="M82 836q0 168 90 264q94 94 207 94q96 0 150.5 -83t54.5 -196q0 -195 -103 -282q-84 -82 -190 -82q-94 0 -151.5 82t-57.5 203zM199 903q0 -152 46 -221.5t109 -69.5q131 0 131 234q0 117 -44 206t-119 89q-66 0 -94.5 -73t-28.5 -165zM244 84q143 219 396 609t349 538 q29 16 62 16q6 0 6 -8q-41 -51 -387 -588.5t-402 -617.5q-8 -4 -12 0q-14 35 -12 51zM692 358q0 168 90 269q98 94 209 94q94 0 148.5 -82t54.5 -197q0 -195 -98 -282q-90 -84 -193 -84q-94 0 -152.5 83.5t-58.5 198.5zM809 430q0 -154 45 -223.5t109 -69.5q133 0 133 234 q0 121 -41 208t-123 87q-63 0 -93 -72t-30 -164z" />
<glyph unicode="&#x26;" horiz-adv-x="1421" d="M119 322q0 82 57 149.5t217 177.5q6 6 2 10q-119 133 -119 279q0 127 88.5 214t213.5 87q106 0 176.5 -67.5t70.5 -167.5q0 -78 -54 -141.5t-196 -160.5q-2 -2 -3 -5t1 -5q41 -43 167 -148.5t227 -183.5q4 -4 10 0q78 109 123 256q23 59 -23 78q-16 8 -96 19q-6 2 -4 15 t6 17q6 0 64.5 -3t109.5 -3q45 0 87 1t65.5 3t29.5 2q4 -2 5.5 -15t-3.5 -17l-71 -15q-51 -16 -86 -71q-27 -45 -62 -110.5t-59.5 -108.5t-46.5 -72q-2 -2 2 -8q283 -211 313 -248q0 -27 -31.5 -74t-56.5 -72q-14 -8 -22 0q-6 12 -31 36t-27 26q-98 82 -243 197q0 2 -3.5 2 t-5.5 -2q-174 -221 -415 -222q-168 0 -272.5 98.5t-104.5 252.5zM270 371q0 -127 91.5 -209t220.5 -82q182 0 288 137q6 6 2 10q-309 254 -444 391q-6 4 -10 0q-47 -41 -75 -68.5t-50.5 -75.5t-22.5 -103zM391 1006q0 -150 144 -277q6 -4 10 0q160 123 160 270 q0 76 -41 136.5t-119 60.5q-63 0 -108.5 -49t-45.5 -141z" />
<glyph unicode="'" horiz-adv-x="294" d="M90 1284q8 10 45 38t51 30q10 4 17 -2q4 -10 4 -64q0 -68 -13.5 -185.5t-23.5 -142.5q-16 -51 -39 -73q-2 -2 -9 -3t-9 1q4 299 -23 401z" />
<glyph unicode="(" horiz-adv-x="749" d="M160 547q0 336 134 592t357 409q6 -2 14.5 -12t6.5 -14q-389 -317 -389 -938q0 -299 94 -561.5t274 -413.5q2 -4 -7 -15.5t-15 -11.5q-45 20 -101.5 69.5t-122 137.5t-120 195.5t-90 256t-35.5 306.5z" />
<glyph unicode=")" horiz-adv-x="749" d="M78 -389q389 332 389 936q0 653 -369 975q-2 4 7.5 14t15.5 12q45 -20 101.5 -70.5t122 -138.5t119.5 -194.5t90 -256t36 -306.5q0 -340 -133 -593t-359 -407q-4 2 -13 14.5t-7 14.5z" />
<glyph unicode="*" horiz-adv-x="649" d="M45 938q8 12 28.5 32.5t30.5 22.5q43 18 170 66q-135 123 -165 158q-6 6 -3 16q33 23 66 22q45 -57 147 -147q33 174 48 215q2 6 30.5 14.5t34.5 8.5q10 0 10 -9q-8 -25 -21 -76t-25.5 -103t-14.5 -60q137 43 233 90l7 -12q-18 -33 -43 -50q-41 -20 -187 -75 q27 -27 100.5 -86.5t104.5 -71.5q4 -8 -10 -16q-43 -10 -76 2q-31 18 -60.5 39.5t-56 42t-37.5 26.5q-49 -211 -49 -252q-4 -4 -10 0q-10 4 -25.5 25.5t-13.5 44.5q4 47 37 209l-244 -84q-6 0 -6 8z" />
<glyph unicode="+" horiz-adv-x="942" d="M74 410v16q8 41 20 72q8 -2 203 -2h125v122q0 172 -4 222q61 20 80 20q8 0 8 -59v-289q0 -16 10 -16h352v-21q-14 -59 -26 -61q-8 -2 -63 -2h-134q-80 0 -127 -2q-12 0 -12 -15q0 -45 -1 -128t-1 -142v-64q-2 -12 -68 -34l-14 2v72v141v168h-348z" />
<glyph unicode="," horiz-adv-x="319" d="M-16 -293q152 143 145 285q-6 66 -53 145q8 18 47 60.5t55 48.5q2 2 11.5 2t13.5 -2q35 -31 41 -129q6 -127 -71 -251t-163 -179q-8 0 -17 4t-9 8q-4 4 0 8z" />
<glyph unicode="-" horiz-adv-x="522" d="M66 373q0 16 7 47t13 31q82 0 369 10v-8l2 -7q-6 -72 -25 -75q-12 -2 -167.5 -7.5t-196.5 -5.5q-2 13 -2 15z" />
<glyph unicode="." horiz-adv-x="319" d="M66 80q0 41 30 72q33 29 66 28.5t61 -24.5q31 -27 31 -78q0 -41 -27 -66q-29 -29 -71 -28q-35 0 -62 26q-28 29 -28 70z" />
<glyph unicode="/" horiz-adv-x="880" d="M84 -233q104 223 334.5 808.5t312.5 808.5q2 4 24.5 12.5t37.5 8.5l4 -4q-16 -63 -295 -768t-350 -834q-4 -6 -26 -21.5t-34 -17.5q-8 1 -8 7z" />
<glyph unicode="0" d="M66 586q0 342 147 514q115 133 279 133q139 0 231 -105q133 -164 133 -489q0 -410 -190 -578q-92 -84 -220 -84q-131 0 -217 80q-163 150 -163 529zM225 666q0 -637 258 -637q66 0 109 49q100 127 100 506q0 287 -65.5 443.5t-177.5 156.5q-74 0 -121 -62 q-47 -55 -75 -183t-28 -273z" />
<glyph unicode="1" d="M229 10.5q0 14.5 4 16.5q76 8 86 10q39 8 53.5 33.5t16.5 91.5q4 92 4 454q4 348 -4 420q-8 63 -45 66q-10 2 -100 6q-2 4 -2 15.5t4 15.5q164 16 289 94q16 0 16 -6q-6 -88 -6 -522q0 -412 6 -535q4 -68 14 -93.5t43 -35.5q27 -8 107 -16q2 -4 -1 -16.5t-5 -14.5 q-8 0 -87 3t-153 3q-57 0 -109.5 -2t-85 -3t-41.5 -1q-4 2 -4 16.5z" />
<glyph unicode="2" d="M63 989q53 88 148.5 166t206.5 78q131 0 218 -97.5t87 -256.5q0 -199 -231 -461q-37 -43 -240 -273q-2 -2 0 -5t4 -3q57 -8 226 -11t218 1q23 2 39.5 10t44 45t56.5 107q4 2 17 -3t13 -10q-61 -221 -106 -268q-12 -14 -76 -14q-76 0 -254 4t-262 4q-33 0 -100 -6 q-12 12 -6 29q127 123 183 184t144 178q174 225 174 440q0 117 -57 198t-178 81q-133 0 -246 -141q-4 0 -13.5 10t-9.5 14z" />
<glyph unicode="3" d="M78 162q4 12 26 12q39 -111 105 -158q68 -51 199 -51q98 0 176 75t78 212q0 135 -75 222t-216 87q-41 0 -74 -6q-4 6 7 32.5t20 30.5q131 31 193.5 102t62.5 167q0 94 -53.5 163.5t-155.5 69.5q-123 0 -228 -116q-4 -2 -13 12t-7 18q166 199 334 199q106 0 182 -77 t78 -191q0 -154 -185 -287q-6 -4 -2 -8q289 -86 289 -322q0 -205 -174 -332q-135 -102 -309 -102q-111 0 -176 37q-41 23 -58 74q-24 65 -24 137z" />
<glyph unicode="4" d="M23 352q0 16 6 47q539 762 569 809q4 4 35 9.5t37 3.5v-762q0 -8 6 -8q154 0 227 2q-16 -76 -16 -105q-135 4 -209 4q-6 0 -6 -10q0 -66 1 -197t1 -194q-70 0 -160 -23q6 393 6 412q0 10 -8 10l-276 2h-213zM136 452q1 -3 3 -3q25 -2 144 -3h227q10 0 10 11l6 559 q0 2 -3 3t-5 -1q-37 -51 -193.5 -280.5t-187.5 -280.5q-2 -2 -1 -5z" />
<glyph unicode="5" d="M80 66q0 23 33 84q2 2 8 4t8 0q123 -174 309 -174q109 0 176.5 70.5t67.5 182.5q0 98 -40 166t-138 136q-63 45 -180 110.5t-131 75.5q-8 18 -5 41q27 86 87.5 234.5t89.5 189.5q18 33 36 33q6 0 94.5 -6.5t127.5 -4.5q63 0 96 31q4 0 12 -6t6 -10q-45 -98 -84 -133 q-31 -25 -65 -25q-61 0 -135 6t-78 6q-14 0 -25 -16q-43 -86 -71 -187q-2 -4 1 -12t7 -10q289 -158 362 -211q88 -61 129 -131t41 -168q0 -178 -146.5 -303t-320.5 -125q-150 0 -237 82q-35 39 -35 70z" />
<glyph unicode="6" d="M72 414q0 295 221 547.5t569 365.5q4 -2 10.5 -15.5t4.5 -17.5q-252 -113 -398.5 -277.5t-199.5 -336.5q-2 -10 4 -12q184 96 282 96q121 0 207 -98.5t86 -251.5q0 -250 -203 -381q-86 -59 -204 -60q-188 0 -283.5 125.5t-95.5 315.5zM238 444q0 -209 76.5 -313 t193.5 -104q92 0 145.5 79.5t53.5 223.5q0 158 -78 251t-187 93q-74 0 -143 -41q-41 -25 -49 -66q-12 -51 -12 -123z" />
<glyph unicode="7" d="M59 932q49 158 70 291q35 -14 156 -15h385q125 0 194 4q4 -8 4 -18q-37 -117 -282.5 -668t-257.5 -579q-4 -6 -13 -6q-29 6 -43 26q-2 2 -3 10.5t1 10.5q16 35 110.5 231.5t157 329.5t132 286.5t88.5 213.5q0 10 -2 10q-397 8 -535 -2q-43 -4 -67.5 -30t-61.5 -107 q-2 -4 -16.5 2t-16.5 10z" />
<glyph unicode="8" d="M94 279q0 70 54.5 140t199.5 175q4 2 5 5t-1 5q-109 78 -158 149.5t-49 157.5q0 141 107 230q102 92 240 92q127 0 210.5 -82t83.5 -209q0 -72 -48 -136.5t-167 -146.5q-2 -2 -2 -5t2 -5q141 -96 198.5 -164.5t57.5 -169.5q0 -133 -110.5 -235.5t-267.5 -102.5 q-176 0 -265.5 93.5t-89.5 208.5zM223 305q0 -113 75 -196.5t196 -83.5q82 0 138 51t56 145q0 106 -62.5 178t-226.5 172q-16 8 -20 0q-156 -125 -156 -266zM268 987q0 -94 59.5 -158.5t196.5 -148.5q10 -6 17 0q129 104 129 248q0 113 -62.5 185.5t-156.5 72.5 q-84 0 -133.5 -54.5t-49.5 -144.5z" />
<glyph unicode="9" d="M63 813q0 223 181 344q113 76 237 76q170 0 269.5 -134t99.5 -337q0 -297 -209 -537.5t-528 -345.5q-2 0 -9.5 14.5t-5.5 18.5q440 199 564 649q2 4 -1.5 6t-7.5 0q-59 -43 -147 -77.5t-152 -34.5q-113 0 -202 101t-89 257zM211 899q0 -170 84 -257t201 -87q88 0 149 47 q20 16 27 39q14 53 14 127q0 174 -73.5 293t-194.5 119q-90 0 -148.5 -77t-58.5 -204z" />
<glyph unicode=":" horiz-adv-x="468" d="M141 80q0 35 31 70q27 27 64 26q35 0 61 -22q31 -31 31 -78q0 -39 -29 -64q-23 -29 -70 -28q-35 0 -59 26q-29 29 -29 70zM141 584q0 39 31 69q25 29 64 29q37 0 61 -25q31 -29 31 -75q0 -41 -29 -66q-25 -27 -70 -27q-35 0 -59 25q-29 29 -29 70z" />
<glyph unicode=";" horiz-adv-x="468" d="M45 -293q164 150 158 285q-2 53 -53 145q8 18 47 60.5t55 48.5q2 2 12 2t12 -2q12 -8 25.5 -44t15.5 -85q4 -121 -75.5 -248t-167.5 -182q-8 0 -17.5 4t-9.5 8q-6 6 -2 8zM143 584q0 39 31 69q25 29 64 29q37 0 61 -25q31 -29 31 -75q0 -41 -29 -66q-25 -27 -70 -27 q-35 0 -59 25q-29 29 -29 70z" />
<glyph unicode="&#x3c;" horiz-adv-x="942" d="M106 420q0 6 9.5 29.5t13.5 25.5q121 55 382 194.5t302 174.5q4 0 8 -4q0 -12 -9 -49t-15 -43q-51 -49 -527 -291l-2 -11q10 -6 104.5 -54t180.5 -93t170 -92t100 -62q4 -4 -8 -33.5t-22 -41.5q-6 -8 -11 -4q-53 43 -305 175t-371 179z" />
<glyph unicode="=" horiz-adv-x="942" d="M74 268q4 29 20 76q16 -6 199 -6h571q4 -2 4 -14q-2 -12 -13 -40t-15 -30l-760 -2q-6 2 -6 16zM74 582q8 49 20 73q16 -4 199 -4h573q4 -2 4 -14q-2 -14 -12 -41t-16 -29l-762 -2q-12 7 -6 17z" />
<glyph unicode="&#x3e;" horiz-adv-x="942" d="M115 764q-4 4 8 32.5t22 41.5q6 6 11 4q53 -43 305 -175t370 -180q0 -6 -10 -29.5t-14 -25.5q-121 -55 -382 -195.5t-302 -173.5q-4 0 -6 7q0 12 9 48t15 42q25 23 215.5 126t309.5 165q6 2 4 10q-8 4 -104.5 54t-181.5 95t-169 92.5t-100 61.5z" />
<glyph unicode="?" horiz-adv-x="684" d="M143 1141q0 39 45 88q14 20 48 20q109 0 213 -78q66 -49 103.5 -117.5t37.5 -131.5q0 -96 -41 -142q-27 -31 -118 -102.5t-105 -85.5q-23 -23 -23 -49q0 -18 21.5 -54t60.5 -67q8 -8 -4 -23q-20 -27 -66 -43q-27 -8 -51 0q-37 16 -62.5 52t-25.5 75q0 49 19 64 q10 10 105 87t122 101q57 51 57 109q0 72 -57 147.5t-180 108.5q-12 4 -36 8t-30 6q-33 7 -33 27zM231 72q0 41 27 69q37 29 68 29q41 0 65 -25q29 -31 29 -77q0 -39 -25 -64q-27 -29 -76 -29q-37 0 -61 25q-27 29 -27 72z" />
<glyph unicode="@" horiz-adv-x="1529" d="M98 262q0 350 221 608q248 283 584 283q240 0 384.5 -170t144.5 -389q0 -147 -54.5 -269t-136.5 -194t-168 -110.5t-158 -38.5q-86 0 -69 153q6 61 26 154q2 4 -2 5t-6 -3q-82 -125 -189.5 -218t-166.5 -93q-90 0 -90 188q0 117 48 246t134 219q51 57 157.5 115.5 t203.5 58.5q68 0 151 -19q-29 -63 -43 -122q-27 -102 -56.5 -278.5t-31.5 -240.5q0 -72 53 -71q102 0 205.5 114.5t103.5 331.5q0 274 -151.5 419.5t-357.5 145.5q-70 0 -146 -19t-164 -75.5t-156.5 -142.5t-113.5 -234.5t-45 -336.5q0 -260 99.5 -410t232.5 -188 q43 -12 106 -13q4 -2 4 -11t-4 -13q-37 -18 -86 -19q-33 0 -85 19.5t-118.5 68.5t-124 118t-96.5 182.5t-39 248.5zM555 248q0 -133 61 -133q100 0 238 231q39 68 59 162q53 201 58 207q-31 18 -107 18q-147 0 -231 -166q-78 -151 -78 -319z" />
<glyph unicode="A" horiz-adv-x="1146" d="M-72 10.5q0 14.5 4 16.5q106 14 142.5 41.5t81.5 134.5q61 150 354 950q20 61 27 98q2 0 21.5 -1t35.5 -1h27q12 0 19 1t9 1l25 -90q6 -18 149.5 -452.5t180.5 -528.5q41 -96 70.5 -118.5t129.5 -34.5q3 -3 3 -10q0 -20 -7 -23q-154 6 -227 6q-168 0 -242 -6q-2 4 -2 15 t2 18q80 12 100 20q26 12 26 37q0 9 -3 18q-12 47 -133 404l-8 6q-6 4 -8 4q-20 2 -177 2q-147 0 -170 -2q-12 0 -16 -14q-121 -326 -127 -377q-2 -18 -1 -33.5t15.5 -29t44.5 -19.5q51 -12 88 -16q2 -4 1 -16.5t-5 -16.5q-16 0 -99 3t-134 3q-53 0 -116.5 -3t-76.5 -3 q-4 2 -4 16.5zM377 600q0 -10 8 -12q18 -2 164 -2q125 0 139 2q5 0 6 5q0 3 -2 7l-147 467q-8 0 -8 -2q-17 -43 -160 -465z" />
<glyph unicode="B" horiz-adv-x="1083" d="M37 27q92 10 117 16q29 8 42 31.5t15 79.5q6 96 6 477q0 410 -4 489q-6 70 -49 86q-23 8 -113 19q-4 2 -4 15t4 15q29 0 71 -2t80 -3t79 -1q51 0 137 2t157 2q55 0 106.5 -9t110 -35.5t93.5 -86t35 -145.5q0 -88 -55.5 -161t-157.5 -111q-2 -4 0 -7q137 -29 218 -108.5 t81 -206.5q0 -244 -244 -348q-111 -47 -299 -47q-20 0 -185 4q-110 3 -182 3q-36 0 -61 -1q-3 2 -3 11q0 19 5 22zM371 645q0 -426 8 -512q4 -35 31 -55q49 -39 153 -39q266 0 266 297q0 156 -97 238.5t-265 82.5q-72 0 -88 -4zM371 719q0 -12 8 -12q37 -4 104 -5 q137 0 185 29q90 59 90 199q0 276 -299 276q-49 0 -66 -8q-16 -6 -16 -33q-6 -135 -6 -446z" />
<glyph unicode="C" horiz-adv-x="1312" d="M100 637q0 176 80 322.5t240 232.5q172 94 420 94q88 0 228 -19.5t151 -19.5q-33 -131 -37 -295q-2 -4 -12.5 -6t-18.5 -2t-8 4q-14 115 -38 165t-77 77q-96 49 -258 49q-227 0 -356 -154.5t-129 -429.5q0 -289 148.5 -459.5t406.5 -170.5q158 0 243 81q61 61 134 189 q4 2 16 -4t14 -12q-20 -78 -69.5 -166t-83.5 -107q-139 -43 -295 -43q-332 0 -515.5 175t-183.5 499z" />
<glyph unicode="D" horiz-adv-x="1398" d="M31 10.5q0 14.5 4 16.5q80 8 112 18q20 6 30.5 13.5t21 29t12.5 57.5q6 125 6 517q0 358 -4 434q-4 57 -14.5 78.5t-46.5 31.5q-41 12 -103 19q-2 2 0 15t4 15q147 -6 236 -6q63 0 182 4t203 4q274 0 434 -139q190 -166 190 -465q0 -354 -270 -536q-190 -131 -461 -131 q-61 0 -178 4t-207 4h-147q-4 2 -4 16.5zM375 637q0 -412 4 -477q4 -49 41 -74q63 -43 239 -43q188 0 302 113q158 162 157 465q0 338 -227 499q-127 88 -381 88q-78 0 -109 -10q-20 -16 -22 -43q-4 -59 -4 -518z" />
<glyph unicode="E" horiz-adv-x="1034" d="M8 9.5q0 13.5 4 17.5q102 8 131 16q35 10 50.5 33.5t19.5 83.5q4 98 4 518q0 342 -4 424q-4 57 -15.5 77.5t-47.5 28.5q-29 10 -93 17q-4 4 -3 15t5 15q16 0 92 -3t140 -3h391q164 0 215 8l2 -2q4 -2 4 -4q-20 -76 -37 -268q-4 -4 -17 -4t-18 2q-4 74 -22 131 q-12 39 -32.5 57.5t-74.5 20.5q-43 4 -159.5 4t-145.5 -4q-20 -2 -20 -29q-2 -63 -4 -253q-1 -95 -1 -150t1 -70q0 -16 8 -16q41 -2 155.5 -2t161.5 4q29 2 47.5 13t25.5 23.5t15 34.5q12 33 19 72q4 2 19.5 2t17.5 -2q-14 -86 -15 -184q0 -45 2 -100.5t2 -69.5 q-4 -6 -18 -6t-16 4q-6 43 -15 71q-16 66 -82 72q-39 2 -158 3q-40 0 -71 1q-62 0 -88 -2q-10 0 -10 -16q-1 -19 -1 -69.5t1 -132.5q2 -163 4 -251q2 -63 47 -71q61 -12 250 -13q59 0 96 8.5t50.5 16.5t31.5 26q53 47 113 191q2 2 14 -4t14 -10q-6 -43 -35.5 -136.5 t-46.5 -128.5q-10 -16 -28.5 -19t-91.5 -3q-41 0 -188.5 3t-309.5 3q-72 0 -158 -3t-123 -3q-4 2 -4 15.5z" />
<glyph unicode="F" horiz-adv-x="985" d="M51 10.5q0 12.5 2 16.5q74 6 94 12q39 8 50.5 32.5t15.5 84.5q4 139 4 481q0 395 -4 457q-2 41 -4 56t-12.5 30.5t-32.5 25.5q-31 10 -109 19q-2 2 -2 15t2 15q8 0 86 -3t146 -3h446q119 0 180 15q4 0 9 -9q-20 -63 -33 -278q-2 -4 -16.5 -4t-18.5 2q-8 102 -33 151 q-18 57 -86 62q-53 4 -178 4t-154 -4q-25 -4 -24 -35q-4 -86 -4 -494q0 -8 10 -8q254 0 313 4q82 2 105 54q16 43 26 94q4 2 18.5 2t16.5 -4q-14 -96 -14 -195q0 -35 2 -92t2 -76q-2 -4 -15.5 -6t-17.5 0q-8 53 -20 88q-23 55 -70 60q-49 4 -181 6q-66 1 -108 1t-59 -1 q-8 0 -8 -13q0 -317 4 -409q2 -61 14.5 -87t52.5 -36q43 -8 111 -14q8 -23 0 -33q-29 0 -113 3t-143 3q-55 0 -135 -3t-113 -3q-2 4 -2 16.5z" />
<glyph unicode="G" horiz-adv-x="1361" d="M100 635q0 195 94.5 347.5t260.5 225.5q172 78 393 78q90 0 229.5 -21.5t147.5 -21.5q-25 -94 -33 -299q-4 -6 -17.5 -7t-21.5 3q-8 111 -30.5 161t-67.5 75q-98 59 -281 59q-238 0 -362.5 -154.5t-124.5 -431.5q0 -283 144 -461t405 -178q92 0 145 21q49 18 55 94 q7 81 8 150q0 46 -4 85q-4 59 -19 81t-63 30q-14 2 -27 4t-33.5 4t-39.5 4q-4 4 -4 16.5t4 16.5q35 0 123 -3t137 -3q123 0 193 6q4 -4 4 -16.5t-4 -16.5q-47 -10 -66 -16q-29 -8 -38 -31.5t-11 -83.5q-6 -92 -6 -152q0 -48 4 -77t11 -38t34 -17q2 -4 0 -15.5t-4 -13.5 q-293 -76 -426 -76q-346 0 -527.5 169t-181.5 503z" />
<glyph unicode="H" horiz-adv-x="1439" d="M47 9.5q0 13.5 4 17.5q59 6 99 18q41 12 51 43t14 111q2 66 2 442q0 406 -4 475q-6 78 -53 90q-23 6 -109 17q-6 6 -6 14t6 18q27 0 116 -3t130 -3q53 0 225 6q4 -4 3 -17t-5 -15q-47 -4 -82 -15q-33 -10 -45 -27.5t-14 -66.5q-4 -88 -4 -420q0 -12 10 -16q12 -4 358 -4 q293 0 316 2q8 0 8 10q0 377 -4 451q-4 55 -43 69q-45 12 -100 17q-4 4 -5.5 16t5.5 16q14 0 94 -3t141 -3q57 0 137 3t88 3q12 -20 0 -32q-84 -14 -90 -17q-33 -12 -45 -31.5t-14 -76.5q-6 -117 -6 -488q0 -365 6 -467q4 -47 13 -67.5t38 -28.5q31 -12 113 -20q3 -3 2 -9 q0 -17 -6 -24q-37 0 -111 3t-125 3q-96 0 -244 -6q-12 16 0 33q72 8 97 14q33 10 44 30.5t13 75.5q2 61 2 443q0 14 -10 14q-31 2 -318 2q-336 0 -356 -4q-8 0 -8 -12q0 -322 4 -420q0 -6 1 -21.5t2 -20.5t2 -17.5t3 -16.5t5 -12t6 -12t8.5 -9.5t11.5 -8.5t14 -5 q51 -14 109 -20q4 -4 1 -17.5t-7 -15.5q-172 6 -234 6q-109 0 -250 -6q-4 2 -4 15.5z" />
<glyph unicode="I" horiz-adv-x="589" d="M51 1240q0 11 4 15q16 0 103.5 -3t144.5 -3q61 0 131 3t84 3q10 -16 2 -30l-86 -15q-33 -10 -42 -32.5t-13 -77.5q-6 -117 -6 -459q0 -350 4 -485q2 -37 6 -54.5t17.5 -35t39.5 -23.5q27 -8 101 -16q3 -3 3 -12q0 -16 -5 -21q-25 0 -97.5 3t-124.5 3q-61 0 -137 -3 t-123 -3q-6 6 -6 14t6 19q49 4 90 14q37 8 48.5 28.5t15.5 65.5q6 90 6 555q0 322 -4 416q0 4 -2 15.5t-2 15.5t-2 13t-3 13t-4 11.5t-6.5 11.5t-8.5 8t-10 7t-13 5q-35 10 -107 19q-4 4 -4 15z" />
<glyph unicode="J" horiz-adv-x="581" d="M-168 -371q10 66 33 109q115 -84 192 -84q61 0 105 45q72 76 71 334q3 123 3 340v240q-2 396 -9 468q-2 29 -3 40.5t-6 33t-18.5 33.5t-33.5 18q-12 4 -111 19q-4 4 -4 15t4 15q25 0 110 -3t144 -3q57 0 132 3t100 3q4 -4 4 -15t-4 -15q-78 -10 -109 -25q-29 -16 -33 -84 q-2 -41 -4 -425t-6 -478q-6 -242 -67 -365q-68 -141 -168.5 -221t-198.5 -80t-123 58v24z" />
<glyph unicode="K" horiz-adv-x="1222" d="M45 8q0 12 2 17q84 10 98 14q29 6 43.5 23.5t18.5 39t6 64.5q4 80 4 491q0 367 -4 445q-2 59 -15.5 79.5t-50.5 30.5q-14 4 -46.5 7.5t-41.5 5.5q-2 4 -2 15t2 15q18 0 96 -3t140 -3q45 0 121 3t96 3q4 -2 4 -14t-4 -16q-61 -8 -88 -17q-20 -6 -30.5 -21.5t-13.5 -34.5 t-5 -67q-2 -88 -2 -426q0 -340 4 -489q2 -70 15.5 -95.5t53.5 -35.5q23 -6 97 -14q4 -4 2 -15.5t-6 -15.5q-29 0 -117 3t-139.5 3t-140.5 -3t-95 -3q-2 2 -2 14zM395 618q0 12 6 19q68 27 187 147.5t235 268.5q57 78 58 116q0 25 -43 35q-63 16 -99 21q-4 4 -3 15t5 15 q37 0 100.5 -3t100.5 -3q137 0 223 6q4 -4 5 -15t-5 -15q-86 -12 -128 -36t-109 -99q-281 -313 -369 -402v-6q31 -61 232.5 -288.5t291.5 -301.5q31 -27 68 -43q41 -20 149 -22q3 -3 4 -13q0 -18 -6 -20q-46 -5 -122 -5q-25 0 -54 1q-115 2 -147 14q-35 10 -103 68 q-68 61 -215 234t-231 284q-13 16 -31 28z" />
<glyph unicode="L" horiz-adv-x="1042" d="M33 9.5q0 13.5 4 17.5q94 12 106 14q35 8 49.5 26.5t18.5 65.5q6 84 6 563q0 336 -2 387q-4 70 -14.5 92.5t-55.5 32.5q-4 0 -96 17q-2 2 -2 15t4 15q14 0 90 -3t148 -3q63 0 140 3t87 3q4 -2 5 -15t-5 -15q-14 -2 -42 -7.5t-42 -9.5q-35 -8 -43 -26.5t-10 -63.5 q0 -27 -1 -101.5t-2 -183t-1 -176.5q-1 -114 -2 -210q0 -193 6 -318q2 -49 35 -59q27 -12 155 -16q55 -1 98 -1q56 0 89 2q63 2 112 62q68 76 125 219q4 4 17.5 0t15.5 -10q-12 -63 -44 -167t-52 -143q-18 -25 -82 -24q-59 0 -285.5 4t-275.5 4t-139.5 -3t-110.5 -3 q-4 2 -4 15.5z" />
<glyph unicode="M" horiz-adv-x="1648" d="M2 10.5q0 12.5 4 16.5l80 12q47 8 66.5 40t31.5 122q12 92 38 423.5t32 477.5q0 74 -55 94q-47 18 -129 29q-4 4 -3 16t5 14q10 0 114.5 -3t227.5 -3q4 -45 39 -114q94 -215 229 -509t162 -341q2 -6 8 0q29 53 184.5 379.5t218.5 465.5q35 82 39 119q100 0 194.5 3 t125.5 3q4 -2 4 -15t-4 -17q-70 -6 -117 -21q-61 -14 -61 -86q0 -18 -1 -46q0 -116 7 -416q8 -374 14 -496q4 -55 18.5 -81t57.5 -36q35 -8 100 -14q2 -2 2 -14.5t-2 -18.5q-12 0 -98 3t-152 3q-100 0 -241 -6q-4 2 -4 15.5t4 17.5q63 8 94 18q55 14 55 98q1 64 1 144 q0 279 -11 749q-4 4 -8 0q-8 -18 -88 -187t-148.5 -317.5t-141.5 -313.5t-95 -230q-4 -2 -18.5 -2t-18.5 2q-23 78 -121 312.5t-203.5 476t-122.5 284.5q-6 0 -6 -4q-10 -127 -26.5 -446.5t-16.5 -417.5q0 -72 13.5 -105t54.5 -43q20 -6 108 -18q4 -4 3 -17.5t-5 -15.5 q-18 0 -85.5 3t-121.5 3q-57 0 -137 -3t-90 -3q-4 4 -4 16.5z" />
<glyph unicode="N" horiz-adv-x="1409" d="M16 1225q-1 1 -1 4.5t1 10.5q2 13 4 15q16 0 92 -3t117 -3q74 0 93 2q14 -33 77 -108q526 -657 756 -928l6 4q0 784 -8 873q-4 49 -18.5 74.5t-55.5 37.5q-31 8 -123 21q-2 4 -2 15t4 15q20 0 102.5 -3t135.5 -3q35 0 108.5 3t81.5 3q2 -2 2.5 -14t-2.5 -16 q-43 -8 -79 -17q-63 -20 -68 -110q-6 -72 -8 -211t-3 -341t-3 -284q0 -141 4 -272q-28 2 -57.5 2t-61.5 -2q-43 66 -220 291t-383 481t-214 268q-2 2 -5 1t-3 -3q-2 -158 -2 -461t4 -389q2 -70 21.5 -97.5t58.5 -37.5q31 -8 108 -16q4 -4 3 -17.5t-5 -15.5q-12 0 -92 3 t-137 3q-59 0 -128 -3t-81 -3q-2 2 -2 16.5t2 16.5q63 6 90 14q37 10 56.5 37.5t23.5 97.5q12 180 18 895q0 57 -47 98q-20 18 -47 29.5t-45.5 16t-67.5 10.5z" />
<glyph unicode="O" horiz-adv-x="1474" d="M100 635q0 213 113 381q86 123 235.5 196.5t307.5 73.5q293 0 455.5 -185.5t162.5 -453.5q0 -240 -121 -416q-86 -129 -228 -198.5t-300 -69.5q-133 0 -252 52.5t-199 138.5q-174 192 -174 481zM281 682q0 -170 63.5 -328.5t192.5 -249.5q111 -78 264 -77q139 0 227 77 q174 150 174 478q0 168 -58.5 319.5t-176.5 237.5q-117 90 -275 90q-104 0 -196 -51q-109 -66 -162 -198t-53 -298z" />
<glyph unicode="P" horiz-adv-x="1032" d="M42 15q0 9 3 12q70 8 96.5 14t36.5 12t19.5 31t11.5 76q8 131 8 485q0 385 -4 449q-2 55 -13.5 80.5t-47.5 33.5q-49 12 -99 17q-2 2 0 15t4 15q12 0 95.5 -3t136.5 -3t146 2t151 2q166 0 260 -71q123 -96 125 -267v-8q0 -121 -57 -207q-58 -88 -146 -133 q-100 -51 -209 -51q-61 0 -90 10q-8 6 -20 31q0 10 6 10q61 -6 84 -6q84 0 143 33q119 71 119 262v12q0 154 -80 247t-252 93q-57 0 -76 -8q-10 -4 -14 -26q-6 -147 -6 -484q0 -471 2 -522q2 -72 16.5 -94.5t61.5 -32.5q23 -4 98 -14q6 -2 6 -16.5t-4 -16.5q-23 0 -117 3 t-139 3q-51 0 -141 -3t-109 -3q-5 5 -5 21z" />
<glyph unicode="Q" horiz-adv-x="1474" d="M100 631q0 219 111 381q90 129 237.5 201.5t317.5 72.5q276 0 442 -182t166 -459q0 -295 -178 -483q-104 -113 -272 -174q88 -23 198 -80q324 -145 471 -146q166 0 252 58q4 -2 9.5 -15.5t3.5 -19.5q-172 -150 -400 -150q-117 0 -256 70q-76 37 -186.5 103.5t-124.5 74.5 q-123 72 -221 86q-190 20 -324 119q-127 94 -186.5 241.5t-59.5 301.5zM281 678q0 -268 140 -465t396 -197q147 0 266 149.5t119 418t-133 458t-379 189.5q-201 0 -305 -157.5t-104 -395.5z" />
<glyph unicode="R" horiz-adv-x="1171" d="M49 9.5q0 13.5 6 15.5q80 12 95 16q35 8 47 32.5t16 82.5q4 115 4 471q0 410 -4 491.5t-66 91.5q-45 10 -94 15q-2 4 -2 16t4 14q23 0 103 -3t108 -3q68 0 170.5 2t147.5 2q168 0 258 -86t90 -221q0 -223 -238 -321q-6 -6 -2 -13q211 -346 344 -477q66 -66 105 -84 t112 -24q2 -7 2 -13q0 -12 -8 -20q-30 -3 -64 -3q-45 0 -98 5q-92 8 -139 29q-51 25 -94 75q-45 51 -159.5 230.5t-133.5 206.5q-20 35 -49 34q-8 1 -26 1t-45 -1q-54 -2 -58 -2q-8 0 -8 -12q0 -317 4 -401q2 -61 13 -82t42 -29q25 -6 105 -18q4 -4 3 -16.5t-5 -16.5 q-8 0 -95.5 3t-146.5 3q-82 0 -160 -4l-78 -2q-6 2 -6 15.5zM373 643q0 -10 8 -10q73 -9 128 -9q77 0 118 17q145 55 145 260q0 143 -82 224t-239 81q-39 0 -62 -8q-10 -4 -10 -24q-6 -60 -6 -531z" />
<glyph unicode="S" horiz-adv-x="913" d="M70 307q2 6 16 9t18 -1q51 -190 144 -252q72 -51 201 -51q96 0 159.5 59.5t63.5 168.5q0 98 -59.5 165.5t-204.5 157.5q-143 88 -215 175t-72 208q0 156 109.5 248t277.5 92q74 0 178.5 -15.5t106.5 -15.5q-25 -137 -35 -264q-2 -4 -17.5 -5t-17.5 3q-8 100 -26.5 146.5 t-57.5 70.5q-61 37 -158 37q-102 0 -162 -62q-61 -65 -61 -161q0 -137 135 -238q45 -33 128 -82t102 -61q94 -63 148 -134t54 -173q0 -158 -117.5 -263.5t-316.5 -105.5q-82 0 -161.5 19.5t-112.5 42.5q-14 18 -28.5 118.5t-18.5 163.5z" />
<glyph unicode="T" horiz-adv-x="1230" d="M35 965q29 145 37 311l10 4q66 -31 160 -31h753q104 0 181 25q8 0 8 -4q-25 -80 -41 -307q-2 -4 -18.5 -4.5t-18.5 4.5q-8 111 -31 165q-23 53 -80 60q-53 2 -162 3h-65q-55 0 -74 -1q-10 -4 -10 -19q0 -776 8 -989q4 -80 19.5 -105.5t52.5 -35.5q27 -8 100 -16 q4 -2 2 -15.5t-6 -15.5q-29 0 -121 3t-133 3q-74 0 -172 -3t-119 -3q-4 6 -4 16t4 15q92 10 131 18q43 8 55.5 39t16.5 106q6 135 6 990q0 14 -12 14q-18 1 -74 1h-66q-114 -1 -145 -3q-51 -2 -82 -53q-27 -43 -75 -179q-2 -4 -17.5 -0.5t-17.5 7.5z" />
<glyph unicode="U" horiz-adv-x="1355" d="M37 1240q0 11 4 15q6 0 90 -3t145 -3q59 0 133 3t89 3q2 -2 2 -14t-2 -16q-76 -16 -86 -19q-29 -8 -40.5 -30.5t-13.5 -81.5q-6 -156 -6 -313t6 -316q10 -186 68 -268q96 -150 326 -150q158 0 251 84t105 299q9 178 9 358q0 135 -5 271q-2 84 -22.5 112.5t-67.5 38.5 q-16 4 -43 7.5t-43 5.5q-2 4 -2 15t4 15q6 0 76.5 -2t138.5 -2q49 0 111.5 2t74.5 2q4 -4 4 -16t-4 -14q-55 -8 -75 -15q-39 -12 -53.5 -42.5t-16.5 -116.5q-10 -578 -31 -697q-57 -389 -477 -389q-436 0 -481 369q-8 55 -10 205.5t-2 328.5t-3 232q0 92 -51 108 q-20 8 -98 19q-4 4 -4 15z" />
<glyph unicode="V" horiz-adv-x="1200" d="M-47 1255q16 0 102 -3t135 -3q100 0 230 6q2 -2 2 -14t-2 -16q-49 -10 -94 -23q-29 -9 -30 -33q0 -10 5 -22q45 -125 186.5 -492.5t165.5 -427.5l2 -2q4 0 7 2q27 57 161.5 401.5t173.5 458.5q13 35 13 61q0 11 -2 19q-8 29 -50 39q-70 14 -102 19q-2 4 1 16t5 14 q16 0 86 -3t121 -3q53 0 118.5 3t78.5 3q2 -4 2 -15t-2 -15q-45 -6 -82 -17q-43 -12 -67.5 -47t-67.5 -137q-293 -721 -322 -795q-53 -135 -84 -243q-26 4 -48.5 4t-41.5 -4q-59 193 -92 276q-229 618 -309 809q-31 76 -54.5 103.5t-62.5 35.5l-86 15q-3 3 -3 9q0 18 7 21z " />
<glyph unicode="W" horiz-adv-x="1736" d="M-53 1257q37 0 115.5 -4t136.5 -4q129 2 217 6q2 -2 2 -14t-2 -16q-70 -14 -84 -21q-26 -13 -27 -48q0 -17 6 -40q63 -258 244 -860q4 2 6 4q268 745 320 942q14 -2 28 -1q22 0 47 3q25 -104 147 -452.5t183 -501.5h4l4 2q186 592 234 817q6 32 6 56q0 64 -43 77 q-57 14 -115 23q-4 4 -4 15t4 15q16 0 96 -3t125 -3q82 0 205 6q4 -2 4 -14t-4 -16q-78 -16 -98 -25q-33 -14 -51.5 -43t-40.5 -90q-59 -168 -174 -541.5t-160 -539.5q-72 0 -78 -2q-76 268 -330 962q-6 0 -8 -4q-309 -895 -327 -954q-6 2 -41 1t-43 -3q-45 195 -149.5 562 t-154.5 509q-27 80 -48 108.5t-64 40.5q-43 10 -92 19q-3 2 -4 11q1 19 8 21z" />
<glyph unicode="X" horiz-adv-x="1191" d="M-33 9.5q0 13.5 2 17.5q74 8 109 16q70 16 155 133q104 141 295 428q4 10 0 17q-158 287 -247 434q-27 45 -35 57t-26.5 37t-37 36t-45.5 19q-57 14 -121 21q-4 4 -4 16t4 14q39 0 118 -3t145 -3q123 0 202 6q4 -4 4 -15t-4 -15q-55 -12 -67 -17q-25 -8 -13 -34 q10 -27 55.5 -106t102.5 -177t78 -137q6 -4 10 0q213 332 234 397q4 12 4 21q0 24 -27 30q-25 8 -102 21q-2 4 0 17t4 15q16 0 79.5 -3t112.5 -3q68 0 143.5 3t80.5 3q4 -18 0 -30q-90 -16 -103 -21q-49 -14 -83 -42.5t-99 -127.5q-123 -188 -213 -332q-4 -4 0 -16 q217 -383 250 -436q74 -123 109.5 -159t90.5 -48q25 -6 105 -14q4 -2 4 -17.5t-6 -17.5l-113 4q-75 3 -136 3q-31 0 -58 -1q-39 -2 -112 -5t-83 -3q-4 4 -5 17.5t3 17.5q82 16 88 18q29 10 14 39q-53 119 -260 465q-2 4 -5 4t-3 -4q-217 -315 -280 -447q-5 -13 -5 -23 q0 -27 35 -36q49 -10 90 -16q2 -4 1 -16.5t-5 -16.5q-25 0 -100.5 3t-112.5 3q-35 0 -215 -8q-2 4 -2 17.5z" />
<glyph unicode="Y" horiz-adv-x="1097" d="M-33 1240q0 11 4 15q25 0 109 -3t141 -3q119 0 199 6q6 -2 6 -15t-4 -15q-14 -2 -66 -15q-28 -8 -28 -33q0 -15 10 -36q133 -274 270 -516h8q203 352 261 491q16 39 5.5 61.5t-53.5 30.5q-14 4 -40.5 8.5t-45.5 8.5q-4 4 -3 16t8 14q160 -6 204 -6q47 0 118 3t85 3 q4 -2 4 -14t-4 -16l-84 -17q-45 -10 -71.5 -37.5t-59.5 -85.5q-219 -362 -285 -514q-16 -27 -16 -67l6 -328q2 -68 15.5 -98.5t56.5 -40.5q39 -8 96 -14q2 -4 0 -15.5t-4 -13.5q-16 0 -108.5 3t-149.5 3q-66 0 -147.5 -3t-106.5 -3q-4 4 -4 14t4 15q57 4 115 16 q39 8 52 36.5t15 84.5l4 297q0 68 -16 98q-78 176 -246 477q-61 109 -90 137.5t-74 40.5q-12 4 -25.5 6.5t-30.5 4.5t-32 4q-2 4 -2 15z" />
<glyph unicode="Z" horiz-adv-x="1128" d="M47 958q43 188 53 310q6 4 13 3l8 -1q41 -20 170 -21h411q236 0 312 8q8 0 8 -16q-74 -125 -351.5 -574.5t-373.5 -596.5q-2 -4 -1 -7.5t3 -3.5q85 -12 325 -12q90 0 201 2q57 0 103 41q63 53 147 244q14 0 31 -10q-8 -53 -40 -170t-52 -146q-10 -16 -92 -16 q-188 0 -413.5 3t-246.5 3q-121 0 -194 -6q-2 2 -3.5 11t1.5 11q141 188 411.5 613.5t335.5 554.5q4 12 -2 12q-459 0 -530 -4q-68 -6 -109 -60q-39 -53 -90 -184q-2 -2 -18.5 3t-16.5 9z" />
<glyph unicode="[" horiz-adv-x="665" d="M201 -356l4 1859q0 12 10 13h354q4 -2 1 -31t-9 -29q-59 -2 -262 -2q-12 0 -12 -14q-12 -78 -13 -854q0 -666 9 -850q0 -33 20 -39q37 -10 279 -10q4 -4 1 -32t-14 -30q-109 -6 -288 0q-60 3 -80 19z" />
<glyph unicode="\" horiz-adv-x="837" d="M72 1376q20 27 51 39l2 -2h2q471 -1282 635 -1634q-4 -8 -10 -8q-49 4 -60 22q-33 63 -157.5 385t-271 704.5t-191.5 493.5z" />
<glyph unicode="]" horiz-adv-x="671" d="M84 1448q-4 10 1 34.5t15 24.5q51 4 336 4q23 0 33 -6l-2 -1872q0 -12 -10 -12q-72 0 -178.5 -1t-178.5 -1q-2 2 -2 15.5t5.5 30t13.5 16.5q195 0 258 6q4 0 8 6t4 10q10 76 10 846q0 764 -8 854q-6 39 -20 41q-29 4 -285 4z" />
<glyph unicode="^" horiz-adv-x="774" d="M68 631q27 33 143.5 266t144.5 301q2 2 26 10.5t28 8.5q39 -90 151.5 -305.5t145.5 -262.5q0 -6 -2 -10q-8 -8 -41 -19.5t-37 -7.5q-16 16 -70.5 114.5t-112 210.5t-63.5 122q-10 4 -12 0q-193 -393 -213 -416q-18 -23 -72 -22q-16 0 -16 10z" />
<glyph unicode="_" horiz-adv-x="1128" d="M-8 -373h1165v-104h-1165v104z" />
<glyph unicode="`" horiz-adv-x="819" d="M220 1190q1 4 3 8q12 4 57.5 8t63.5 0q31 -70 113 -309q-2 -4 -12.5 -9t-14.5 -3q-92 117 -209 301q-2 0 -1 4z" />
<glyph unicode="a" horiz-adv-x="772" d="M72 197q0 53 22 98q29 16 186.5 67.5t192.5 69.5q12 6 12 19v79q0 70 -34 117q-55 78 -162 78q-45 0 -74 -18q-47 -33 -82 -148q-2 -2 -12 3t-18.5 15.5t-8.5 18.5q0 16 14.5 53t22.5 45q61 47 140 82t120 35q123 0 187 -102q43 -66 43 -201q0 -57 -3.5 -180t-3.5 -158 q0 -90 74 -90q39 0 70 10q0 -33 -8 -41q-66 -74 -160 -74q-70 0 -96 50q-10 18 -15 53q0 2 -3 4t-5 0q-158 -106 -227 -107q-59 0 -105 45q-67 68 -67 177zM213 229q0 -66 39 -107.5t102 -41.5q55 0 107 31q18 14 18 43q4 127 4 233q0 2 -2 4q-1 1 -2 1l-2 -1 q-225 -74 -250 -98q-14 -15 -14 -64z" />
<glyph unicode="b" horiz-adv-x="933" d="M-2 1346q154 10 291 63q8 0 8 -14q-20 -29 -21 -367q-1 -65 0 -122q0 -114 3 -197q0 -8 10 -4q172 106 270 106q137 0 221 -104q82 -94 82 -246q0 -252 -182 -379q-55 -43 -139 -75t-146 -32q-76 0 -170 29q-28 8 -51 8q-20 0 -37 -6q-2 -2 -6 2t-4 8q8 106 8 486 q0 629 -10 737q-2 33 -8 43t-23 18q-18 10 -100 19q-3 1 -3 7q0 17 7 20zM275 469q1 -143 6 -219q2 -113 36 -148q68 -53 160 -53q100 0 160 68q76 82 76 256q0 152 -68 243q-74 98 -199 99q-78 0 -151 -47q-14 -6 -16 -25q-3 -25 -4 -121v-53z" />
<glyph unicode="c" horiz-adv-x="772" d="M72 377q0 238 196 352q137 82 258 82q92 0 150 -25q49 -25 59 -51q0 -18 -4 -24q-27 -55 -61 -72q-10 -4 -19 0q-100 106 -215 106q-104 0 -162.5 -83.5t-58.5 -200.5q0 -168 76 -260q84 -111 231 -111q131 0 219 94q6 0 7 -6q0 -31 -7 -39q-135 -164 -317 -164 q-174 0 -272 134q-80 108 -80 268z" />
<glyph unicode="d" horiz-adv-x="950" d="M72 362q0 92 37.5 178.5t103.5 143.5q68 55 166 91t186 36q12 0 94 -10q8 0 9 6q0 383 -4 436q-6 59 -46 70q-49 14 -96 18q-4 14 4 31q188 0 303 47q6 -4 7 -16q-14 -27 -21 -185q-6 -168 -6 -602q0 -336 4 -446q2 -51 10 -66.5t27 -17.5q10 -1 20 -1l62 5q1 -3 1 -7.5 t-1 -10.5q-2 -11 -4 -13q-33 -18 -127 -52t-123 -36q-12 0 -12 25q-4 33 -4 104q0 8 -9 4q-166 -119 -282 -119q-127 0 -209 105q-90 106 -90 282zM219 432q0 -164 78 -258t195 -94q94 0 153 49q14 12 19 37q4 43 5 207v98q0 87 -1 129q-4 39 -13.5 59.5t-36.5 40.5 q-63 45 -163 45q-96 0 -156 -61q-80 -82 -80 -252z" />
<glyph unicode="e" horiz-adv-x="790" d="M72 387q0 248 176 358q41 27 104.5 46.5t104.5 19.5q88 0 150.5 -52t86 -108.5t33.5 -118.5q4 -14 25 -16q2 -6 1 -11q0 -11 -10 -16q-109 -37 -522 -47q-12 0 -12 -22q4 -137 76 -225q84 -104 225 -105q133 0 223 86q8 0 8 -6q4 -18 -4 -35q-147 -160 -319 -160 q-152 0 -240 99q-106 114 -106 313zM215 506q0 -12 6 -12q20 -2 58 -2q47 0 122 3q135 5 166 13q12 6 13 16q-10 92 -58.5 163t-130.5 71q-72 0 -121 -66.5t-55 -185.5z" />
<glyph unicode="f" horiz-adv-x="473" d="M29 9.5q0 13.5 2 17.5q49 6 73 12q43 14 43 78q2 59 3.5 269t1.5 304q0 16 -9 17l-100 4q0 23 14 41q57 8 88 28q8 4 9 13q0 199 50 324.5t179 217.5q104 74 182 74q55 0 97.5 -22.5t56.5 -51.5v-16q-4 -14 -30.5 -52t-37.5 -46q-6 -6 -16 -2q-96 96 -180 96 q-47 0 -86 -35q-31 -31 -48.5 -103.5t-21.5 -139t-6 -173.5q0 -57 2 -69q0 -12 8 -13q164 4 197 6q-12 -41 -17 -83q-10 0 -87 2q-38 1 -62 1t-33 -1q-8 0 -8 -17q0 -80 1 -211t1 -223t2 -135q2 -68 59 -80q47 -10 88 -14q2 -2 0 -16.5t-4 -16.5q-23 0 -94.5 3t-122.5 3 q-25 0 -97.5 -3t-94.5 -3q-2 2 -2 15.5z" />
<glyph unicode="g" horiz-adv-x="829" d="M41 -326q0 55 14 72q35 41 203 170q0 2 -2 6q-59 16 -98 58.5t-39 80.5q0 8 4 25q115 66 143 88q2 2 2 6t-4 4q-84 29 -136 106t-52 193q0 147 112 240q49 37 119 62.5t121 25.5q76 0 162 -35q55 -20 119 -20q55 0 78.5 8t46.5 31q2 2 8 -2.5t6 -8.5q0 -12 -16.5 -50 t-32.5 -50q-23 -16 -66 -16q-18 0 -51 2q-6 0 -2 -11q25 -53 25 -135q0 -172 -117 -260q-94 -74 -223 -86q-8 -2 -29 -2q-20 -4 -41 -19.5t-21 -37.5q0 -29 24 -45.5t50 -20.5q25 -4 100.5 -10t140 -14.5t93.5 -16.5q150 -49 149 -202q0 -102 -66.5 -192.5t-174.5 -147.5 q-104 -55 -223 -56q-133 0 -224 68q-102 73 -102 192zM168 -283q0 -90 74 -151q80 -66 211 -66q137 0 199.5 60.5t62.5 154.5q0 117 -107 156q-88 39 -250 39q-43 0 -73 -21q-117 -78 -117 -172zM215 532q0 -123 54.5 -208.5t152.5 -85.5q57 0 94 36q55 55 55 197 q0 113 -51 199t-160 86q-70 0 -107.5 -63t-37.5 -161z" />
<glyph unicode="h" horiz-adv-x="948" d="M10 1329q0 10 2 14q158 10 281 66q8 -4 8 -18q-16 -29 -18 -179v-524q0 -6 8 -2q162 125 280 125q113 0 174.5 -83t61.5 -236q0 -305 2 -396q0 -25 14 -39q27 -20 105 -30q1 -3 1 -8t-1 -11q-2 -12 -6 -14q-6 0 -74 3t-121 3q-96 0 -182 -6q-4 2 -4 15.5t4 17.5 q74 12 80 16q20 10 27 28.5t10 82.5q2 91 1 163q0 193 -12 254q-12 55 -57 99.5t-131 44.5q-90 0 -156 -58q-25 -18 -24 -47q0 -424 4 -479q4 -47 14 -65.5t39 -26.5q29 -6 68 -12q4 -4 4 -15.5t-4 -15.5l-68 2q-68 2 -137 2q-51 0 -108.5 -3t-69.5 -3q-2 4 -2 16.5t4 16.5 q53 8 67 12q41 12 43 96q4 49 4 350q0 678 -10 768q-6 41 -41 52q-10 2 -78 10q-2 4 -2 14z" />
<glyph unicode="i" horiz-adv-x="436" d="M29 10.5q0 14.5 2 16.5q55 4 80 16q35 14 36 84q4 51 5 328q0 152 -2 186q0 25 -13 41q-16 20 -82 39q-2 4 -2 16.5t2 14.5q150 16 244 61q-4 -111 -4 -346q0 -256 2 -354q0 -55 43 -72q33 -10 76 -14q0 -31 -6 -33q-18 0 -86 3t-103 3q-49 0 -114.5 -3t-75.5 -3 q-2 2 -2 16.5zM135 1087q-1 6 -1 13q0 21 11 37q27 31 82 30q37 0 56 -18q16 -16 16 -47q0 -61 -43 -82q-8 -6 -37 -9q-10 -1 -17 -1q-15 0 -24 4q-43 16 -43 73z" />
<glyph unicode="j" horiz-adv-x="434" d="M-33 -550q0 3 2 5q102 74 143.5 184.5t41.5 325.5q0 641 -4 672q-4 43 -35 59q-29 14 -84 21q-2 6 -2 18.5t2 16.5q162 8 276 61q-8 -182 -8 -717q-6 -133 -12 -192q-20 -158 -109.5 -289t-177.5 -184q-20 0 -31 14q-2 2 -2 5zM137 1098q0 35 8 45q35 35 91 35 q39 0 51 -17q12 -12 12 -41q0 -55 -31 -86q-6 -6 -39 -12q-20 -4 -30 -4q-7 0 -11 2q-49 21 -51 78z" />
<glyph unicode="k" horiz-adv-x="862" d="M14 1336.5q0 11.5 4 15.5q176 14 275 57q10 0 10 -12q-16 -29 -18 -201q-4 -166 -4 -778q53 12 98 49q59 53 132 136t73 106q0 18 -31 26q-31 10 -88 15q-2 2 -1 16t3 16q215 0 342 19q4 -4 5 -17.5t-3 -17.5q-102 -20 -156 -76l-215 -219q-2 -2 -2 -5t2 -5 q53 -82 162 -214t166 -177q35 -29 62.5 -36t76.5 -7q3 -2 4 -11q0 -17 -6 -22q-20 -4 -188 -4q-68 2 -107 41q-29 25 -73.5 83t-101 134t-87.5 112q-23 27 -67 29q0 -193 4 -262q2 -47 13 -64.5t44 -25.5q16 -4 70 -10q8 -16 -2 -33q-14 0 -82 3t-117 3q-47 0 -111.5 -3 t-74.5 -3q-4 2 -4.5 16.5t4.5 16.5q55 8 71 14q39 16 41 72q4 61 4 321q0 750 -6 819q-4 47 -39 58q-20 6 -78 10q-4 4 -4 15.5z" />
<glyph unicode="l" horiz-adv-x="423" d="M17 18q0 6 1 9q59 6 84 18q33 18 35 64q4 84 4 553q0 512 -8 571q-4 49 -29 57q-23 8 -81 15q-4 4 -4.5 14t4.5 14q139 14 268 76q8 -4 8 -10q-18 -63 -18 -230v-489q0 -455 6 -541q4 -47 11 -66.5t30 -29.5q29 -12 82 -16q1 -2 1 -6.5t-1 -11.5q-2 -13 -4 -15 q-6 0 -73 3t-118 3q-47 0 -117.5 -3t-77.5 -3q-3 10 -3 24z" />
<glyph unicode="m" horiz-adv-x="1462" d="M29 11.5q0 13.5 4 15.5q49 6 76 16q35 10 38 92q6 156 7 461q0 45 -19 68q-20 25 -88 38q-2 4 1 16.5t7 14.5q57 4 126 28.5t112 51.5q6 0 6 -6t-1 -58.5t-1 -68.5q0 -2 3 -5t5 -1q170 137 275 137q141 0 204 -137q4 -10 13 -2q180 139 290 139q113 0 171.5 -81 t60.5 -228q0 -51 1 -205t3 -197q0 -33 14 -45q23 -20 105 -28q1 -3 1 -8t-1 -11q-2 -12 -6 -14q-14 0 -80 3t-113 3q-68 0 -184 -6q-2 2 -2 16.5t2 16.5q61 8 88 20q18 6 22.5 34t4.5 101q1 78 1 140q0 186 -10 229q-10 68 -54 113t-130 45q-88 0 -174 -74q-4 -4 -4 -19 q8 -55 8 -141q0 -340 2 -381q4 -37 29 -47q33 -14 90 -20q4 -4 2 -17.5t-6 -15.5q-27 0 -90.5 3t-106.5 3q-41 0 -104.5 -3t-77.5 -3q-4 2 -4 15.5t4 17.5q53 6 78 14q18 8 24 24.5t11 59.5q3 59 3 175v61q-1 163 -10 204q-31 145 -176 146q-72 0 -143 -54q-39 -31 -39 -61 q0 -379 2 -485q0 -57 41 -70q27 -8 78 -14q4 -2 2 -16.5t-6 -16.5q-20 0 -85 3t-106 3q-59 0 -115.5 -3t-74.5 -3q-4 4 -4 17.5z" />
<glyph unicode="n" horiz-adv-x="958" d="M33 9.5q0 13.5 4 17.5q45 4 72 14q35 12 38 82q4 47 5 332q0 162 -5 190q-4 20 -21 32.5t-75 29.5q-2 4 0 15t6 13q143 18 240 78q6 0 6 -8q-2 -27 -8 -121q0 -4 2 -7t6 -1q168 135 283 135q117 0 182 -104q49 -76 49 -234q0 -295 2 -377q0 -39 27 -47q37 -16 88 -22 q1 -3 1 -8t-1 -11q-2 -12 -6 -14q-6 0 -61.5 3t-116.5 3q-72 0 -201 -6q-4 2 -4 16.5t4 16.5q61 6 78 12q39 12 43 63q3 51 3 164v61q-1 161 -7 208q-16 92 -60 131q-45 45 -125 45q-92 0 -166 -68q-20 -20 -20 -74q0 -352 4 -442q2 -70 37 -82q25 -10 86 -18q2 -4 1 -16.5 t-3 -16.5q-8 0 -71.5 3t-125.5 3q-70 0 -125 -3t-61 -3q-4 2 -4 15.5z" />
<glyph unicode="o" horiz-adv-x="946" d="M74 401q0 215 174 332q113 78 254 78q174 0 273 -112.5t99 -286.5q0 -113 -48 -210.5t-138 -154.5q-104 -72 -223 -72q-137 0 -228.5 65.5t-127 157.5t-35.5 203zM231 449q0 -182 79 -299t204 -117q78 0 125 45q78 80 78 270q0 178 -75 293t-206 115q-66 0 -102 -31 q-103 -69 -103 -276z" />
<glyph unicode="p" horiz-adv-x="937" d="M4 -539.5q0 13.5 4 17.5q63 16 82 22q45 18 47 90q4 82 4 537q0 440 -4 485q-4 51 -24 66q-25 18 -90 24q-4 2 -2 15.5t6 15.5q55 10 130.5 41t116.5 62q1 1 2 0q2 0 7 -5q6 -6 4 -10q-4 -41 -4 -137q0 -2 8 -2q186 129 289 129q115 0 194 -90q90 -102 90 -258 q0 -223 -172 -365q-68 -55 -160 -89t-163 -34q-33 0 -82 15q-6 -4 -6 -10q0 -274 6 -388q2 -43 14 -58t49 -21q12 -2 101 -11q4 -4 2 -18t-7 -16h-94q-76 0 -144.5 -5.5t-123.5 -11.5t-76 -8q-4 4 -4 17.5zM279 409.5q0 -163.5 2 -202.5q2 -82 51 -117q51 -39 145 -39 q82 0 150 58q92 82 92 272q0 158 -74 248q-70 82 -174 82q-88 0 -166 -62q-25 -14 -24 -43q-2 -33 -2 -196.5z" />
<glyph unicode="q" horiz-adv-x="940" d="M72 379q0 199 164 323q158 109 362 109q113 0 231 -37q-14 -29 -20 -94q-6 -82 -6 -311q0 -655 8 -756q4 -51 14.5 -70.5t42.5 -25.5q31 -6 93 -13q0 -29 -5 -32q-121 0 -161 -2q-86 -4 -179.5 -14.5t-107.5 -10.5q-10 20 -2 33q33 4 92 20q29 10 41 31.5t14 71.5 q8 168 9 460q0 2 -3.5 4.5t-5.5 0.5q-53 -35 -132 -63t-128 -28q-135 0 -228 113t-93 291zM221 438q0 -172 90 -269t219 -97q68 0 119 30q12 6 13 23q0 477 -11 530q0 31 -18 45q-53 43 -182 43q-100 0 -165 -82t-65 -223z" />
<glyph unicode="r" horiz-adv-x="612" d="M33 9.5q0 13.5 4 17.5q43 4 76 14q31 14 32 57q8 47 9 365q0 145 -4 172q-6 55 -101 78q0 25 6 26q133 14 232 74q8 0 8 -6q-2 -37 -2 -170q0 -2 3 -3t5 1q63 86 121 133q53 43 104 43q59 0 86 -43q2 -2 2 -13.5t-2 -17.5q-2 -16 -23.5 -54t-37.5 -56q-14 -6 -16 -6 q-51 55 -119 55q-53 0 -105 -84q-18 -37 -18 -82q0 -336 6 -397q2 -55 39 -70q49 -12 106 -16q4 -4 2 -17.5t-6 -15.5q-8 0 -84.5 3t-122.5 3q-92 0 -196 -6q-4 2 -4 15.5z" />
<glyph unicode="s" horiz-adv-x="655" d="M66 227q2 4 14 7.5t18 1.5q31 -150 125 -197q43 -23 92 -23q61 0 101.5 35t40.5 90.5t-32 93t-116 84.5q-125 66 -171 124.5t-46 138.5q0 96 74 162.5t205 66.5q61 0 116 -10q53 -8 74 -8q-16 -72 -22 -199q-2 -4 -16.5 -5t-16.5 3q-14 133 -74 160q-41 20 -90 20 q-53 0 -90 -32.5t-37 -92.5q0 -57 33 -97t139 -93q119 -61 161 -113.5t42 -126.5q0 -104 -85 -173t-212 -69q-111 0 -203 39q-24 90 -24 213z" />
<glyph unicode="t" horiz-adv-x="538" d="M31 713l16 49q82 14 88 16q6 4 6 13v161q29 12 73 48t56 55q2 1 4 0q7 0 21 -4q-12 -57 -12 -256q0 -12 10 -13q172 0 221 9q-12 -49 -16 -86q-31 0 -102.5 1t-102.5 1q-10 0 -10 -13v-430q2 -98 14 -123q25 -72 109 -71q63 0 112 32q1 -1 1 -4.5t-1 -10.5q-2 -13 -4 -19 q-68 -90 -188 -91q-119 0 -160 86q-27 53 -27 234q0 57 1 206.5t1 186.5q0 12 -8 15q-4 2 -102 8z" />
<glyph unicode="u" horiz-adv-x="931" d="M16 737q-2 4 1 17.5t6 15.5q162 0 268 33q-10 -55 -10 -383q0 -176 10 -217q31 -125 168 -125q86 0 159 59q20 14 25 58q2 33 2 208t-4 256q-4 49 -39 60q-23 6 -129 18q-4 2 -2 16.5t6 16.5q190 0 318 31q-8 -51 -9 -217l2 -406q0 -61 12.5 -80.5t45.5 -19.5q10 0 63 4 q0 -33 -4 -35q-139 -39 -250 -82q-12 0 -12 17v116q0 4 -4 6t-8 0q-147 -129 -264 -129q-231 0 -232 273q0 354 -2 401q-4 61 -29 72q-16 8 -88 16z" />
<glyph unicode="v" horiz-adv-x="790" d="M-20 788q16 0 82.5 -3t99.5 -3q70 0 180 6q4 -2 4 -14t-2 -16q-59 -10 -78 -19q-10 -6 -10 -28q16 -57 94 -263t96 -247h9q102 248 159 440q12 47 12 66v7q-3 15 -24 21q-37 16 -92 23q-2 6 0 17t6 13q6 0 68.5 -3t101.5 -3q82 0 150 6q4 -2 4 -14t-4 -16 q-63 -12 -68 -15q-47 -16 -72 -75q-74 -156 -202 -502q-37 -96 -62 -176q-49 0 -63 -4q-10 37 -54 157l-159 426q-41 109 -57.5 134.5t-53.5 39.5q-16 4 -68 15q-3 3 -3 12q1 15 6 18z" />
<glyph unicode="w" horiz-adv-x="1214" d="M-25 788q6 0 64.5 -3t130.5 -3q68 0 178 6q2 -2 3 -15t-1 -15q-10 -2 -33.5 -7.5t-29.5 -7.5q-31 -8 -25 -38q10 -43 73.5 -247t82.5 -255q6 0 6 2q41 96 111.5 281.5t89.5 256.5q11 -2 24 -1q20 0 47 3q4 -16 49 -149q141 -379 152 -399h8q25 55 82 227t76 248 q2 10 2 18q0 39 -39 49q-45 12 -88 19q-2 6 0 17t6 13q6 0 65.5 -3t112.5 -3q16 0 146 6q2 -2 2 -14t-2 -16q-4 -2 -17.5 -4t-23.5 -6q-43 -10 -59.5 -28t-37.5 -67q-37 -88 -124.5 -328.5t-118.5 -334.5q-12 1 -23 1q-23 0 -45 -5q-29 90 -104.5 289.5t-102.5 259.5 q-4 4 -8 0q-2 -6 -94 -242t-115 -303q-16 2 -29 1q-21 0 -38 -3q-82 322 -197 624q-27 76 -44 100.5t-52 35.5l-62 10q-1 3 -1 8q0 15 3 22z" />
<glyph unicode="x" horiz-adv-x="751" d="M-37 9.5q0 13.5 2 17.5q86 12 117 31.5t78 80.5q33 45 157 228v12l-141 248q-51 84 -78.5 102.5t-109.5 26.5q-2 4 -1 17t5 15q14 0 76.5 -3t124.5 -3q51 0 108 3t61 3q2 -2 3.5 -15t-0.5 -17q-53 -10 -62 -13q-23 -8 -12 -32q27 -63 121 -222q4 -8 8 0q92 129 123 203 q16 35 -19 47q-27 10 -75 17q-4 4 -4.5 16t4.5 16q14 0 74.5 -3t76.5 -3q78 0 164 6q4 -2 5 -15t-3 -17q-80 -14 -109.5 -31.5t-72.5 -81.5q-29 -39 -133 -194q-4 -6 -2 -15q100 -178 135 -237q68 -113 101.5 -137.5t115.5 -32.5q2 -4 2 -16.5t-4 -16.5q-6 0 -78 3t-125 3 q-51 0 -113.5 -3t-74.5 -3q-8 23 0 33q53 10 67 16q20 10 10 33q-29 70 -135 243q-4 8 -8 0q-113 -168 -135 -223q-18 -37 16 -51q39 -12 92 -18q2 -4 0 -17.5t-4 -15.5q-6 0 -78 4q-48 3 -78 3q-15 0 -26 -1l-164 -6q-2 2 -2 15.5z" />
<glyph unicode="y" horiz-adv-x="806" d="M-14 788q6 0 61 -3t121 -3q49 0 111.5 3t66.5 3q4 -4 4 -15t-2 -15q-55 -12 -67 -17q-20 -10 -15 -30q14 -51 98.5 -273.5t100.5 -255.5h4q147 328 174 496q1 7 1 14q0 37 -40 49l-82 17q-2 4 -1 16t5 14q8 0 68.5 -3t97.5 -3q10 0 158 6q4 -2 4 -14t-4 -16 q-51 -10 -64 -17q-47 -16 -73 -84q-219 -598 -492 -1089l-71 -115l-11 -4q-57 14 -78 49q-6 12 -2 21q223 279 320 487q-12 29 -17 37q-106 289 -200 520q-41 102 -60.5 135t-52.5 43q-29 10 -67 17q-1 3 -2 9q1 18 6 21z" />
<glyph unicode="z" horiz-adv-x="718" d="M35 573q31 119 49 228q47 -18 139 -19h277q96 0 151 6q4 0 4 -20q-188 -346 -403 -698q-4 -14 6 -15q70 -12 268 -12q70 0 148 184q10 6 35 6l4 -4q-16 -72 -68 -204q-14 -35 -41 -35q-66 0 -281 6q-162 5 -226 5q-21 0 -31 -1q-8 4 -9 25q287 446 418 700q4 10 -2 10 q-221 0 -260 -6q-31 -2 -47 -10t-41 -45t-53 -111q-6 -2 -20.5 1t-16.5 9z" />
<glyph unicode="{" horiz-adv-x="772" d="M80 545q-2 4 2 20.5t8 18.5q109 2 159 46t52 116.5t-4 166.5q0 14 -7 96.5t-7 96.5q0 203 97 302t284 118q6 -2 6 -33q-156 -23 -216.5 -100.5t-60.5 -208.5q0 -47 12.5 -168t12.5 -174q0 -227 -221 -275v-6q80 -8 132 -36.5t72.5 -75t26.5 -80t6 -80.5q0 -63 -12 -186 t-12 -171q0 -135 71.5 -198.5t206.5 -77.5q2 -4 -1 -18.5t-5 -16.5q-170 4 -276.5 85t-106.5 237q0 45 12 202q8 111 11.5 192t-52 135.5t-190.5 72.5z" />
<glyph unicode="|" horiz-adv-x="512" d="M205 -635v2089h104v-2089h-104z" />
<glyph unicode="}" horiz-adv-x="774" d="M84 1493q-2 2 2 16.5t6 16.5q168 -6 274.5 -87t106.5 -237q0 -72 -12 -203q-18 -193 -6 -251q29 -127 192 -160q23 -6 47 -8q0 -33 -12 -39q-109 -2 -161 -47t-53 -117t7 -166q14 -129 14 -166q0 -203 -96 -305t-280 -121q-6 2 -10.5 15.5t-0.5 17.5q156 25 216.5 99.5 t60.5 205.5q0 47 -12.5 159.5t-12.5 166.5q0 45 5.5 74.5t23.5 73.5t66.5 76t123.5 52v6q-63 6 -109 28.5t-69.5 49.5t-37 64.5t-16.5 65.5t-3 63q0 66 12 200.5t12 180.5q0 135 -72.5 199.5t-205.5 76.5z" />
<glyph unicode="~" horiz-adv-x="942" d="M76 354q0 27 18 56q37 47 118 95t134 48q57 0 170 -53q90 -43 137 -43q109 0 205 108l10 -2l2 -2q0 -29 -12 -49q-29 -51 -101.5 -100.5t-152.5 -49.5q-53 0 -172 62q-80 37 -139 37q-43 0 -108.5 -40t-98.5 -75q-2 -2 -6 2t-4 6z" />
<glyph unicode="&#xa2;" d="M121 543q0 109 53 201t156 149q88 49 207 65l14 146q35 10 49 10l-16 -149q96 0 161 -25q53 -20 66 -51q2 -8 -4 -29q-20 -33 -49 -49q-6 -4 -13 0q-84 78 -161 90q-8 0 -9 -8l-63 -633q18 -6 55 -6q143 4 240 102q10 -10 10 -34q-131 -147 -309 -168q-4 0 -8 -9 l-15 -149q-4 -2 -24.5 -5t-22.5 -1l17 155q-2 10 -9 11q-150 16 -245 129q-80 102 -80 258zM268 608q0 -254 197 -336l63 627q-4 8 -8 8q-113 -2 -182.5 -87t-69.5 -212z" />
<glyph unicode="&#xa3;" d="M49 -23q0 10 10.5 48t16.5 45q31 31 84 59q80 47 63 420q-131 0 -145 4q-6 4 -2 12q8 31 28 47q41 -4 119 -4q4 315 99 443q51 68 118.5 111.5t108.5 57t61 13.5q51 0 91 -13.5t56.5 -27.5t16.5 -25q-2 -16 -14 -50t-25 -48q-2 -2 -8 -3t-8 1q-90 90 -182 90 q-66 0 -103 -63q-31 -61 -39 -160.5t-10 -315.5q0 -10 8 -10q193 0 275 6q2 -2 1 -9t-3 -9q-29 -33 -74 -41q-49 -8 -203 -8q-8 0 -8 -8q-27 -266 -152 -394q70 12 220 -18q133 -35 190 -35q86 0 127 32t88 157q2 2 5 2t5 -2q10 -10 15 -35q-47 -150 -136.5 -223.5 t-154.5 -73.5q-70 0 -215 53q-117 43 -170 43q-61 0 -137 -78q-13 0 -17 10z" />
<glyph unicode="&#xa5;" d="M-4 1196q0 12 4 16q8 0 71.5 -3t125.5 -3q109 0 182 6q4 -4 4 -16t-2 -16q-35 -4 -57 -13q-23 -6 -23 -21.5t14 -49.5q127 -297 195 -426q0 -2 4 -2t4 2q100 209 180 409q16 41 7 60.5t-46 29.5l-67 11q-2 4 -1 17t3 15q160 -6 162 -6q55 0 166 6q2 -4 2 -16t-2 -16 q-45 -4 -64 -11q-68 -18 -115 -120q-182 -387 -204 -443q-6 -10 6 -10q37 0 77 1t66 1h31q0 -27 -8 -47h-170q-8 0 -9 -8v-119q0 -8 7 -8q18 0 92 1t78 1q0 -25 -9 -49h-159q-6 0 -6 -9q0 -35 1 -107.5t1 -88.5q2 -68 12 -92.5t55 -32.5q23 -4 90 -12q2 -4 0 -17.5t-4 -15.5 q-23 0 -104.5 3t-137 3t-120 -3t-97.5 -3q-4 4 -4 16.5t4 16.5q61 6 93 12q27 4 40 24.5t15 40t4 58.5q2 37 2 196q0 10 -10 11q-43 0 -96.5 -1t-75.5 -1q4 41 12 51h25q18 0 53 -1t86 -1q6 0 6 8v117q0 10 -8 10q-31 0 -89.5 -1t-74.5 -1q4 39 12 49q4 0 59.5 -1t88.5 -1 q2 0 4 5t0 7q-47 117 -180 393q-51 109 -71 132.5t-60 35.5q-20 6 -68 11q-2 4 -2 16z" />
<glyph unicode="&#xa8;" horiz-adv-x="819" d="M182 1085q0 31 8 48q29 29 76 28q37 0 49 -18q14 -14 15 -43q0 -57 -39 -76q-8 -4 -34 -6t-34 2q-41 16 -41 65zM485 1085q0 31 9 48q29 29 75 28q37 0 49 -18q14 -14 15 -43q0 -57 -39 -76q-8 -4 -33.5 -6t-34.5 2q-41 16 -41 65z" />
<glyph unicode="&#xa9;" horiz-adv-x="1466" d="M102 635q0 264 184.5 448.5t446.5 184.5q268 0 449.5 -183.5t181.5 -449.5t-184.5 -451.5t-446.5 -185.5q-264 0 -447.5 182.5t-183.5 454.5zM156 635q0 -242 170 -417t409.5 -175t406.5 170t167 422q0 246 -169 419t-407 173q-240 0 -408.5 -173t-168.5 -419zM371 639 q0 152 109.5 263.5t314.5 111.5q51 0 133 -10q74 -10 100 -9q-14 -94 -18 -190q-4 -2 -16.5 -2t-14.5 2q-8 59 -20.5 88t-40.5 49q-51 37 -144 37q-127 0 -192.5 -93t-65.5 -239q0 -133 71.5 -237.5t215.5 -104.5q49 0 107.5 36t107.5 103q12 0 20 -16q-10 -37 -48 -88 t-52 -61q-74 -20 -145 -21q-195 0 -308.5 103.5t-113.5 277.5z" />
<glyph unicode="&#xab;" horiz-adv-x="1157" d="M131 371q0 14 8 22q133 57 289 150.5t203 130.5q4 -4 4 -6q0 -25 -14 -39q-35 -37 -145.5 -115t-190.5 -125v-8q49 -27 161.5 -112t159.5 -132q2 -2 4 -17.5t0 -23.5q0 -6 -6 -6q-43 41 -213 144.5t-260 136.5zM498 371q0 12 10 22q145 61 303 156.5t209 136.5q2 0 6 -8 q0 -2 -4 -10.5t-7 -16.5t-5 -10q-39 -39 -157 -120t-202 -132q-2 -2 0 -8q51 -29 172 -118t170 -136q8 -14 4 -43q-4 -4 -6 -4q-41 39 -222 147.5t-271 143.5z" />
<glyph unicode="&#xad;" horiz-adv-x="522" d="M66 373q0 16 7 47t13 31q82 0 369 10v-8l2 -7q-6 -72 -25 -75q-12 -2 -167.5 -7.5t-196.5 -5.5q-2 13 -2 15z" />
<glyph unicode="&#xae;" horiz-adv-x="499" d="M49 1018q0 84 59.5 143.5t141.5 59.5q86 0 143.5 -57.5t57.5 -145.5q0 -86 -58.5 -144.5t-142.5 -58.5t-142.5 58.5t-58.5 144.5zM80 1018q0 -74 50 -127t120 -53q74 0 122 50t48 130q0 74 -49 126t-121 52t-121 -52t-49 -126zM154 924q-2 8 0 12q14 2 21 4t9 5t2 11v136 q0 10 -5 13t-25 5q-2 2 -1 8t3 6q6 0 21.5 -1t23.5 -1h65q59 0 60 -49q0 -37 -45 -51q27 -43 49 -70q16 -16 39 -18q2 -2 0 -6t-4 -6q-18 -4 -56 4q-16 4 -22 16q-29 43 -37 59q-10 12 -25 13v-56q0 -12 5.5 -15t25.5 -7q4 -4 0 -12q-4 0 -23.5 1t-29.5 1t-29.5 -1t-21.5 -1 zM227 1026q31 0 43 6q14 8 15 31q0 45 -47 45q-10 0 -11 -10v-72z" />
<glyph unicode="&#xb4;" horiz-adv-x="819" d="M360 899q90 215 129 289q16 6 64.5 10t58.5 0q2 -2 4 -7t0 -7q-39 -61 -231 -301q-17 0 -25 16z" />
<glyph unicode="&#xb8;" horiz-adv-x="813" d="M262 -332q-4 18 6 29q59 -31 119 -31q35 0 55.5 18.5t20.5 45.5q0 68 -131 120q-2 10 0 17q2 4 49 63.5t61 75.5h39l-57 -78q49 -29 82 -57q43 -39 43 -86q0 -70 -69.5 -120t-121.5 -50q-65 0 -96 53z" />
<glyph unicode="&#xbb;" horiz-adv-x="1153" d="M127 88l8 18q6 16 8 19q98 88 361 252q4 4 0 8q-53 29 -175 118t-169 136q-2 6 -3 21.5t1 21.5q0 4 4 4q43 -39 224 -148.5t269 -144.5q0 -12 -10 -22q-139 -59 -301 -155.5t-211 -135.5q-6 0 -6 8zM518 96q8 33 14 39q39 39 150 118t186 124q6 6 0 8q-49 27 -161.5 112 t-159.5 130l-2 10v18v15q0 4 4 4q41 -39 215 -143.5t258 -137.5q0 -10 -8 -22q-133 -53 -284.5 -145.5t-207.5 -135.5q-2 0 -2 2z" />
<glyph unicode="&#xc6;" horiz-adv-x="1595" d="M-61 11.5q0 13.5 2 15.5q104 14 143 41.5t92 134.5q254 485 475 968q10 18 -6 25l-51 10q-31 6 -63.5 11.5t-43.5 7.5q-4 4 -1 16t8 14q12 0 114.5 -3t177.5 -3h412q166 0 221 8q6 -4 6 -6q-23 -88 -36 -270q-4 -4 -17.5 -4t-17.5 2q-8 88 -27 137q-14 41 -34.5 57.5 t-73.5 18.5q-39 2 -160 2t-158 -2q-12 -4 -12 -23q4 -57 14 -180t18.5 -222t10.5 -124q0 -6 5 -11t9 -5q221 0 283 4q45 2 62.5 15t31.5 54q14 35 18 80q4 2 19.5 2t17.5 -4q-8 -139 -8 -192q0 -43 3 -105.5t3 -72.5q-4 -2 -18.5 -2t-18.5 2l-18 75q-18 53 -49 66 q-14 6 -35 8q-59 4 -289 4q-8 0 -8 -14q16 -225 39 -393q6 -53 20.5 -69.5t44.5 -21.5q45 -6 254 -6q94 0 142 49q53 57 98 191q4 2 18.5 -2t16.5 -8q-2 -33 -27.5 -131.5t-48.5 -143.5q-10 -18 -80 -18q-29 0 -180.5 3t-327.5 3q-70 0 -156.5 -3t-123.5 -3q-6 2 -6 15.5 t4 17.5q84 6 131 20q35 8 45 32.5t8 86.5q2 18 -29 381q-4 8 -10 8q-20 2 -158 2h-174q-6 0 -22 -16q-14 -31 -63.5 -134.5t-84 -179t-43.5 -100.5q-25 -72 49 -86q53 -10 93 -14q2 -4 2 -16.5t-4 -16.5q-18 0 -100.5 3t-133.5 3q-53 0 -117.5 -3t-74.5 -3q-2 4 -2 17.5z M467 641q0 -10 8 -12q18 -2 166 -2q109 0 123 2q10 0 10 10q-25 352 -41 545q-2 2 -6 3t-6 -1q-244 -520 -254 -545z" />
<glyph unicode="&#xe6;" horiz-adv-x="1185" d="M72 197q0 51 22 96q23 14 100.5 39.5t166 51.5t110.5 34q10 4 10 16q2 27 2 94q0 72 -32 121q-51 78 -154 78q-41 0 -78 -18q-12 -6 -38.5 -51.5t-43.5 -92.5q-4 -2 -22.5 11.5t-18.5 19.5q0 10 13.5 50t17.5 44q63 51 144 86t124 35q127 0 191 -119q2 -2 10 -2 q59 59 132 90t124 31q61 0 109.5 -24.5t76 -64.5t41 -72t19.5 -64q0 -10 32 -15q-4 -14 -12 -26q-94 -33 -493 -135q-8 0 -9 -15q4 -123 74 -209q84 -104 207 -104q135 0 238 94q2 -4 4 -19.5t0 -19.5q-68 -80 -154 -120t-168 -40q-168 0 -268 136q-6 6 -10 2 q-168 -137 -279 -138q-72 0 -121 50q-67 72 -67 170zM213 229q0 -66 40 -106.5t103 -40.5q100 0 162 63q6 8 4 15q-43 104 -43 213q0 4 -6 4q-215 -63 -244 -80q-16 -17 -16 -68zM614 465q0 -14 9 -12q301 80 329 90q12 6 13 14q-10 74 -58.5 134.5t-126.5 60.5 q-76 0 -123 -78t-43 -209z" />
<glyph unicode="&#x2c6;" horiz-adv-x="819" d="M217 905q141 227 172 307q8 14 37 15q23 -61 81 -167t83 -142q-10 -16 -62 -17q-10 6 -57 80t-70 117q-4 4 -8 0q-25 -45 -66.5 -105.5t-56.5 -74.5q-18 -18 -47 -19q-6 0 -6 6z" />
<glyph unicode="&#x2d8;" horiz-adv-x="819" d="M219 1083q0 33 55 68q12 0 13 -4q27 -121 143 -121q102 0 158 102q4 4 16 14.5t17 10.5q6 0 6 -8q-23 -86 -87.5 -144.5t-152.5 -58.5q-68 0 -118 39t-50 102z" />
<glyph unicode="&#x2da;" horiz-adv-x="819" d="M281 1053q0 61 37.5 101t97.5 40q57 0 91 -39t34 -96q0 -63 -37 -101t-96 -38q-45 0 -86 33.5t-41 99.5zM324 1055q0 -33 27.5 -53.5t64.5 -20.5q35 0 59.5 19.5t24.5 50.5q0 82 -92 82q-39 0 -61.5 -21.5t-22.5 -56.5z" />
<glyph unicode="&#x2dc;" horiz-adv-x="819" d="M174 987q0 25 6 31q14 27 66.5 63.5t87.5 36.5q37 0 98 -16q70 -20 94 -21q61 0 119 58q4 -4 4 -6q4 -14 -2 -29q-20 -33 -73.5 -70t-92.5 -37q-33 0 -119 25q-47 14 -71 14q-49 0 -109 -53q-2 -2 -8 4z" />
<glyph unicode="&#x2dd;" horiz-adv-x="819" d="M254 913q14 41 37.5 110t40 120t22.5 63q12 4 47 7.5t45 0.5q8 -4 5 -12q-57 -117 -170 -301q-6 -2 -15.5 3t-11.5 9zM473 926q18 49 58 171t42 128q59 16 97 6q2 -2 2 -10q-14 -31 -77 -144.5t-95 -163.5q-4 -4 -14.5 1.5t-12.5 11.5z" />
<glyph unicode="&#x3a8;" horiz-adv-x="1445" d="M41 1018q27 49 81 87t103 38q82 0 142 -139q20 -43 55 -137.5t49 -125.5q61 -137 164 -161q8 -4 8 6q0 498 -2 598q-6 43 -18.5 59.5t-47.5 24.5q-27 6 -63 12q-4 4 -3 16.5t5 14.5q31 0 97.5 -3t117.5 -3q86 0 141.5 3t67.5 3q6 -4 6 -15.5t-6 -15.5l-61 -12 q-43 -8 -56.5 -24.5t-17.5 -59.5q-4 -168 -4 -596q0 -8 8 -8q100 16 176 155q8 18 52 111.5t63 128.5q43 88 83 128t95 40q53 0 90 -43t41 -94q-6 -16 -14 -13q-25 10 -80.5 10.5t-106.5 -85.5q-137 -227 -174 -267q-92 -96 -223 -112q-10 -2 -10 -13q0 -309 2 -370 q2 -66 18.5 -86.5t63.5 -32.5q27 -6 86 -10q4 -6 3 -18.5t-7 -16.5q-14 0 -90 4t-130 4q-61 0 -163.5 -4t-106.5 -4q-6 4 -7 16t7 19q10 0 92 14q68 14 72 117q2 31 3 171t1 193q0 8 -8 13q-143 25 -240 129q-33 35 -174 272q-49 76 -94 76q-12 0 -78 -17q-16 7 -8 23z" />
<glyph unicode="&#x3c8;" horiz-adv-x="1036" d="M-15 659.5q-1 16.5 3 20.5q39 53 98 94t102 41q72 0 111 -143q20 -82 55 -234.5t43 -179.5q31 -100 55.5 -140t63.5 -50q0 43 -3 516t-5 563q18 18 94 51l8 -8q-4 -115 -6 -547t-4 -577q0 -8 10 -9q45 8 79 76t75 217q70 256 98 307q31 59 85 94t84 40.5t52 5.5 q4 -2 7.5 -13.5t1.5 -15.5q-59 -31 -94 -72t-79.5 -138t-119.5 -312q-76 -211 -199 -260q-6 0 -6 -11q0 -385 -4 -532q0 -8 -15 -8q-2 0 -15 8t-27.5 22.5t-16.5 24.5q0 47 -1 258t-1 227q-166 12 -233 207q-18 51 -58.5 191.5t-46.5 163.5q-25 84 -43 115.5t-49 31.5 q-45 0 -94 -45q-4 4 -5 20.5z" />
<glyph unicode="&#x400;" horiz-adv-x="1034" d="M8 9.5q0 13.5 4 17.5q102 8 131 16q35 10 50.5 33.5t19.5 83.5q4 98 4 518q0 342 -4 424q-4 57 -15.5 77.5t-47.5 28.5q-29 10 -93 17q-4 4 -3 15t5 15q16 0 92 -3t140 -3h391q164 0 215 8l2 -2q4 -2 4 -4q-20 -76 -37 -268q-4 -4 -17 -4t-18 2q-4 74 -22 131 q-12 39 -32.5 57.5t-74.5 20.5q-43 4 -159.5 4t-145.5 -4q-20 -2 -20 -29q-2 -63 -4 -252.5t0 -220.5q0 -16 8 -16q41 -2 155.5 -2t161.5 4q29 2 47.5 13t25.5 23.5t15 34.5q12 33 19 72q4 2 19.5 2t17.5 -2q-14 -86 -15 -184q0 -45 2 -100.5t2 -69.5q-4 -6 -18 -6t-16 4 q-6 43 -15 71q-16 66 -82 72q-39 2 -158.5 3t-158.5 -1q-10 0 -10 -16q-2 -39 0 -202t4 -251q2 -63 47 -71q61 -12 250 -13q59 0 96 8.5t50.5 16.5t31.5 26q53 47 113 191q2 2 14 -4t14 -10q-6 -43 -35.5 -136.5t-46.5 -128.5q-10 -16 -28.5 -19t-91.5 -3q-41 0 -188.5 3 t-309.5 3q-72 0 -158 -3t-123 -3q-4 2 -4 15.5zM282 1516.5q1 7.5 3 9.5q12 14 52 36.5t56 24.5q16 -10 96 -100t117 -135q2 -2 -2 -7.5t-11 -11.5t-11 -6q-6 0 -145.5 83t-153.5 97q-2 2 -1 9.5z" />
<glyph unicode="&#x401;" horiz-adv-x="1034" d="M8 9.5q0 13.5 4 17.5q102 8 131 16q35 10 50.5 33.5t19.5 83.5q4 98 4 518q0 342 -4 424q-4 57 -15.5 77.5t-47.5 28.5q-29 10 -93 17q-4 4 -3 15t5 15q16 0 92 -3t140 -3h391q164 0 215 8l2 -2q4 -2 4 -4q-20 -76 -37 -268q-4 -4 -17 -4t-18 2q-4 74 -22 131 q-12 39 -32.5 57.5t-74.5 20.5q-43 4 -159.5 4t-145.5 -4q-20 -2 -20 -29q-2 -63 -4 -252.5t0 -220.5q0 -16 8 -16q41 -2 155.5 -2t161.5 4q29 2 47.5 13t25.5 23.5t15 34.5q12 33 19 72q4 2 19.5 2t17.5 -2q-14 -86 -15 -184q0 -45 2 -100.5t2 -69.5q-4 -6 -18 -6t-16 4 q-6 43 -15 71q-16 66 -82 72q-39 2 -158.5 3t-158.5 -1q-10 0 -10 -16q-2 -39 0 -202t4 -251q2 -63 47 -71q61 -12 250 -13q59 0 96 8.5t50.5 16.5t31.5 26q53 47 113 191q2 2 14 -4t14 -10q-6 -43 -35.5 -136.5t-46.5 -128.5q-10 -16 -28.5 -19t-91.5 -3q-41 0 -188.5 3 t-309.5 3q-72 0 -158 -3t-123 -3q-4 2 -4 15.5zM305 1413q-4 31 8 45q25 29 74 29q33 0 49 -17q14 -16 15 -43q0 -57 -37 -75q-43 -16 -70 -4q-39 16 -39 65zM614 1413q-4 31 9 45q25 29 73 29q33 0 49 -17q14 -16 15 -43q0 -57 -37 -75q-43 -16 -70 -4q-39 16 -39 65z" />
<glyph unicode="&#x402;" horiz-adv-x="1376" d="M37 963q33 166 37 303q0 12 12 12q72 -29 158 -29h755q102 0 181 27q4 0 8 -6q-20 -80 -43 -307q-2 -4 -17.5 -4.5t-17.5 4.5q-16 129 -35 163q-23 57 -76 62q-51 4 -185 4t-175 -2q-10 -4 -10 -19q0 -356 2 -509q162 84 282 83q178 0 273.5 -136t95.5 -318 q0 -238 -117 -422q-80 -131 -199.5 -224.5t-195.5 -95.5q-39 0 -72 29q-2 4 -2 11.5t2 9.5q102 0 193.5 56t144.5 157q80 150 80 383q0 231 -89 346.5t-230 115.5q-86 0 -166 -36q4 -451 6 -490q6 -70 63 -86q51 -12 109 -18q4 -2 2 -16.5t-6 -16.5q-33 0 -124 3t-132 3 q-55 0 -152.5 -4t-134.5 -2q-4 4 -4 16.5t4 16.5q72 6 127 18q41 8 54.5 37t17.5 104q4 88 4 992q0 14 -12 14q-160 8 -226 -4q-47 -6 -75 -47q-39 -61 -80 -187q-4 -4 -18.5 0.5t-16.5 8.5z" />
<glyph unicode="&#x403;" horiz-adv-x="978" d="M51 10.5q0 12.5 2 16.5q74 6 94 12q39 8 51.5 32.5t14.5 84.5q4 139 4 481q0 395 -4 457q-2 41 -4 56t-12.5 30.5t-32.5 25.5q-12 4 -109 19q-2 2 -2 15t2 15q8 0 86 -3t146 -3h446q119 0 180 15q8 0 9 -9q-25 -76 -37 -299q-2 -6 -17.5 -7t-17.5 3q-10 125 -35 178 q-14 31 -34.5 44.5t-61.5 15.5q-47 2 -162 2t-154 -2q-25 -2 -24 -35q-4 -88 -4 -510q0 -90 1 -266t1 -215q4 -59 16.5 -86t50.5 -37q43 -10 113 -14q8 -23 0 -33q-29 0 -113 3t-143 3q-55 0 -135 -3t-113 -3q-2 4 -2 16.5zM449 1337q20 27 106 122t107 108q18 -2 55 -18.5 t47 -28.5q2 -2 2 -8.5t-2 -8.5q-16 -18 -151.5 -104t-147.5 -86q-4 0 -11 10t-5 14z" />
<glyph unicode="&#x404;" horiz-adv-x="1312" d="M100 633q0 178 78 326.5t238 232.5q172 94 426 94q68 0 368 -33q-29 -129 -28 -295q-2 -6 -19.5 -7t-19.5 3q-10 111 -41 165.5t-92 80.5q-90 37 -232 37q-223 0 -357 -149.5t-136 -415.5q0 -12 8 -13q213 -4 416 0q242 4 292 27q2 -2 4.5 -10t0.5 -12q-59 -57 -111 -74 q-88 -8 -602 12q-8 0 -8 -10q16 -268 157.5 -418.5t403.5 -150.5q147 0 239 88q61 59 136 186q4 0 14 -6t12 -10q-27 -84 -73 -171t-78 -104q-131 -41 -291 -41q-336 0 -520.5 171t-184.5 497z" />
<glyph unicode="&#x405;" horiz-adv-x="913" d="M70 307q2 6 16 9t18 -1q51 -190 144 -252q72 -51 201 -51q96 0 159.5 59.5t63.5 168.5q0 98 -59.5 165.5t-204.5 157.5q-143 88 -215 175t-72 208q0 156 109.5 248t277.5 92q74 0 178.5 -15.5t106.5 -15.5q-25 -137 -35 -264q-2 -4 -17.5 -5t-17.5 3q-8 100 -26.5 146.5 t-57.5 70.5q-61 37 -158 37q-102 0 -161.5 -62.5t-61.5 -156.5q-2 -139 135 -242q45 -33 128 -82t102 -61q94 -63 148 -134t54 -173q0 -158 -117.5 -263.5t-316.5 -105.5q-82 0 -161.5 19.5t-112.5 42.5q-14 18 -28.5 118.5t-18.5 163.5z" />
<glyph unicode="&#x406;" horiz-adv-x="589" d="M51 1240q0 11 4 15q16 0 103.5 -3t144.5 -3q61 0 131 3t84 3q10 -16 2 -30l-86 -15q-33 -10 -42 -32.5t-13 -77.5q-6 -117 -6 -459q0 -350 4 -485q2 -37 6 -54.5t17.5 -35t39.5 -23.5q27 -8 101 -16q4 -4 3 -16.5t-5 -16.5q-25 0 -97.5 3t-124.5 3q-61 0 -137 -3t-123 -3 q-12 12 0 33q49 4 90 14q37 8 48.5 28.5t15.5 65.5q6 90 6 555q0 322 -4 416q0 4 -2 15.5t-2 15.5t-2 13t-3 13t-4 11.5t-6.5 11.5t-8.5 8t-10 7t-13 5q-35 10 -107 19q-4 4 -4 15z" />
<glyph unicode="&#x407;" horiz-adv-x="589" d="M51 1240q0 11 4 15q16 0 103.5 -3t144.5 -3q61 0 131 3t84 3q10 -16 2 -30l-86 -15q-33 -10 -42 -32.5t-13 -77.5q-6 -117 -6 -459q0 -350 4 -485q2 -37 6 -54.5t17.5 -35t39.5 -23.5q27 -8 101 -16q4 -4 3 -16.5t-5 -16.5q-25 0 -97.5 3t-124.5 3q-61 0 -137 -3t-123 -3 q-12 12 0 33q49 4 90 14q37 8 48.5 28.5t15.5 65.5q6 90 6 555q0 322 -4 416q0 4 -2 15.5t-2 15.5t-2 13t-3 13t-4 11.5t-6.5 11.5t-8.5 8t-10 7t-13 5q-35 10 -107 19q-4 4 -4 15zM66 1415q-4 31 8 45q25 29 73 29q33 0 50 -16q14 -16 14 -43q0 -57 -37 -76q-43 -16 -70 -4 q-38 16 -38 65zM375 1415q-4 31 8 45q25 29 74 29q33 0 49 -16q14 -16 14 -43q0 -57 -37 -76q-43 -16 -69 -4q-39 16 -39 65z" />
<glyph unicode="&#x408;" horiz-adv-x="581" d="M-168 -371q10 66 33 109q115 -84 192 -84q61 0 105 45q72 76 71 334q4 184 2 580.5t-8 467.5q-2 29 -3 40.5t-6 33t-18.5 33.5t-33.5 18q-12 4 -111 19q-4 4 -4 15t4 15q25 0 110 -3t144 -3q57 0 132 3t100 3q4 -4 4 -15t-4 -15q-78 -10 -109 -25q-29 -16 -33 -84 q-2 -41 -4 -425t-6 -478q-6 -242 -67 -365q-68 -141 -168.5 -221t-198.5 -80t-123 58v24z" />
<glyph unicode="&#x409;" horiz-adv-x="1585" d="M-74 9q0 11 4 14q104 14 143.5 43.5t84.5 136.5q102 246 352 936q31 102 33 112q2 0 20.5 -1t30.5 -1q39 0 51 2q6 -37 29 -102q53 -172 168 -487q102 20 260 20q406 0 405 -326q0 -106 -62.5 -195t-164.5 -132q-92 -39 -238 -35h-313q-4 2 -5 15.5t3 17.5q78 8 113 22 q27 14 16 45q-82 281 -313 961q0 2 -3 2t-3 -2l-277 -776q-35 -98 -47 -156q-12 -70 55 -84l94 -16q4 -8 -2 -29q-16 0 -100 3t-131 3q-55 0 -122.5 -3t-78.5 -3q-2 4 -2 15zM852 612q20 -59 55 -163.5t62.5 -184.5t52.5 -137q39 -86 127 -86q84 0 137 69.5t53 192.5 q0 158 -90 242t-270 84q-84 0 -123 -8q-8 -1 -4 -9z" />
<glyph unicode="&#x40a;" horiz-adv-x="1792" d="M37 10.5q0 14.5 4 16.5q72 6 100 16q39 10 50.5 40t15.5 103v13q2 66 2 442q0 399 -4 469q-6 76 -41 90q-27 12 -113 23q-4 6 -4 17t4 15q8 0 38 -1t82 -3t118 -2q70 0 223 6q4 -2 4 -16t-4 -16q-55 -4 -88 -15q-31 -8 -41 -27.5t-12 -66.5q-4 -74 -4 -405q0 -18 8 -23 q16 -4 295 -4q227 0 260 2q8 0 8 12q0 391 -4 441q-4 55 -41 67q-39 14 -102 19q-4 4 -4.5 16t4.5 16q14 0 97 -3t138 -3q51 0 129 3t90 3q4 -6 3 -16t-5 -14q-78 -14 -88 -19q-33 -12 -45 -30.5t-14 -71.5q-2 -76 -2 -410q0 -8 8 -8q4 0 95 1t128 1q197 0 292 -89t95 -230 q0 -233 -225 -332q-106 -45 -303 -45q-2 0 -181.5 2t-226.5 0q-4 2 -4 15.5t4 15.5q68 10 109 20q29 8 39 30.5t12 74.5q2 43 3 207.5t-1 271.5h-293l-270 -4q-8 0 -8 -13q0 -391 4 -440q2 -61 11 -90t42 -37q31 -8 108 -18q2 -2 0 -16.5t-4 -16.5q-25 0 -106.5 3t-130.5 3 q-96 0 -250 -6q-4 2 -4 16.5zM1094 618q0 -401 4 -487q4 -35 22 -51q51 -43 152 -43q268 0 268 282q0 162 -82 239t-266 77q-72 0 -88 -2q-10 -1 -10 -15z" />
<glyph unicode="&#x40b;" horiz-adv-x="1398" d="M39 967q35 205 35 303q0 8 12 8q72 -29 158 -29h755q111 0 181 25q4 0 8 -8q-20 -72 -43 -303q-2 -4 -17.5 -4.5t-17.5 4.5q-16 121 -31 161q-20 59 -80 64q-51 4 -185 4t-175 -2q-10 -4 -10 -19q0 -356 2 -487q0 -10 8 -6q166 76 307 76q160 0 236 -103q57 -74 57 -221 q2 -115 2 -280q2 -53 11.5 -76t43.5 -33q35 -8 82 -14q2 -2 1 -17.5t-5 -15.5q-6 0 -88 3t-135 3q-70 0 -133.5 -3t-73.5 -3q-2 0 -3 7t0 15.5t3 10.5q20 2 64 10q37 8 50 29.5t15 74.5q2 88 2 273q-2 109 -58 185.5t-194 76.5q-113 0 -182 -37q-10 -4 -10 -21 q0 -299 8 -487q2 -76 61 -88q55 -12 93 -16q2 -4 2 -17.5t-4 -15.5q-35 0 -118 3t-124 3q-55 0 -140 -4t-120 -2q-4 2 -4 16.5t4 16.5q59 6 96 16q43 8 57.5 37t18.5 102q4 90 4 994q0 16 -12 16q-27 2 -108 0t-112 -4q-55 0 -88 -58q-39 -66 -73 -172q-4 -4 -17.5 0.5 t-15.5 8.5z" />
<glyph unicode="&#x40c;" horiz-adv-x="1216" d="M48 10.5q-1 14.5 3 16.5q66 8 78 10q53 10 66.5 39.5t17.5 116.5q4 188 4 477q0 354 -4 438q-2 33 -5 48t-17.5 30.5t-40.5 21.5q-45 10 -93 15q-4 4 -3 17t7 15q14 0 99.5 -3t136.5 -3q61 0 130 3t85 3q4 -2 5 -16t-5 -16q-53 -8 -72 -13q-43 -8 -53 -31.5t-12 -84.5 q-2 -80 -2 -424q0 -8 8 -8q150 0 215 83q55 76 104 177q100 211 168 286.5t164 75.5q29 0 58 -20q12 -6 12 -25q0 -70 -29 -123q-12 -16 -18 -10q-59 41 -109 41q-43 0 -76.5 -37t-85.5 -139q-133 -256 -194 -299q-4 -4 -2 -8q45 -20 98 -95l258 -350q102 -131 154.5 -159.5 t167.5 -32.5q4 0 5 -8.5t-1 -16.5t-6 -8q-37 -6 -135.5 -3t-127.5 9q-72 10 -122 59q-20 20 -45 52t-61 80.5t-61.5 86t-75.5 108.5t-77 110q-49 68 -86 96.5t-96 30.5q-6 0 -6 -9q0 -287 4 -471q2 -53 14 -72.5t53 -29.5q20 -4 88 -14q4 -4 3 -16.5t-5 -16.5q-10 0 -102 3 t-137 3q-68 0 -234 -6q-6 2 -7 16.5zM592 1341q20 27 106 122.5t107 107.5q18 -2 55 -18.5t47 -28.5q2 -2 2 -8.5t-2 -8.5q-16 -18 -151 -104t-148 -86q-4 0 -11 10t-5 14z" />
<glyph unicode="&#x40d;" horiz-adv-x="1441" d="M45 10.5q0 12.5 4 16.5q72 6 101 16q29 8 43 27.5t17 43t5 81.5q2 66 2 446q0 406 -4 475q-6 74 -45 86q-33 10 -117 21q-8 16 2 32q2 0 80 -3t164 -3q47 0 225 6q2 -4 2 -16t-4 -16q-57 -6 -86 -15q-31 -10 -42 -27.5t-13 -64.5q-4 -76 -4 -840q0 -4 3 -5t7 3 q8 10 87 101.5t165 192t180 212t160.5 192.5t79.5 99q10 16 10 29v39q-2 53 -43 65q-33 10 -104 19q-6 4 -5.5 16t5.5 16q14 0 93 -3t142 -3q55 0 134 3t93 3q4 -2 3 -15t-5 -17q-12 -2 -32.5 -5.5t-36 -5.5t-25.5 -6q-33 -10 -44 -30.5t-13 -75.5q-4 -152 -4 -467 q0 -410 6 -488q4 -47 13 -68.5t36 -29.5q31 -12 117 -20q0 -29 -6 -33q-35 0 -107 3t-129 3q-90 0 -244 -6q-4 4 -4 16.5t4 16.5q96 10 113 20q23 8 31 30.5t10 69.5q2 61 2 836q0 4 -5 5t-7 -3q-18 -27 -341 -403.5t-327 -382.5q-12 -12 -12 -35q2 -63 13 -86t46 -33 q45 -14 98 -18q2 -4 1 -17.5t-5 -15.5q-39 0 -109.5 3t-117.5 3q-98 0 -252 -6q-4 4 -4 16.5zM482 1529q1 7 3 9q12 14 52.5 36.5t56.5 24.5q16 -10 96 -100t117 -135q2 -2 -2 -7t-11.5 -11.5t-11.5 -6.5q-6 0 -145 83t-154 98q-2 2 -1 9z" />
<glyph unicode="&#x40e;" horiz-adv-x="1112" d="M-33 1239q0 12 4 16q14 0 100.5 -3t135.5 -3q63 0 135 3t74 3q4 -6 4 -18t-4 -14q-88 -16 -92 -19q-20 -8 -13 -33q37 -90 168 -369.5t160 -332.5q4 -12 10 0q80 156 165 365.5t106 300.5q10 49 -31 65q-39 14 -111 23q-4 4 -4 17t6 15l185 -6q41 0 111.5 3t84.5 3 q4 -4 3 -16t-5 -16q-86 -12 -114.5 -37t-69.5 -121q-229 -543 -391 -838q-156 -297 -299 -297q-47 0 -78 27q-45 49 -41 133q0 20 10 27q98 -51 172 -51q57 0 98 39.5t97 152.5q2 6 -4 37q-190 440 -363 778q-45 90 -74.5 113.5t-132.5 36.5q-2 4 -2 16zM381 1466 q0 16 18.5 41t40.5 37q16 0 19 -4q29 -121 186 -121q125 0 199 92q2 4 19.5 16.5t21.5 12.5q8 0 8 -8q-31 -82 -112 -138.5t-187 -56.5q-84 0 -148.5 37t-64.5 92z" />
<glyph unicode="&#x40f;" horiz-adv-x="1425" d="M46 10.5q-1 14.5 3 16.5q72 6 101 16q29 8 42 26.5t17 41t6 77.5q2 66 2 453q0 399 -4 469q-4 43 -11 62.5t-30 27.5q-23 10 -121 23q-12 18 2 32q23 0 98.5 -3t145.5 -3q29 0 225 6q2 -4 2 -16t-2 -16q-59 -4 -90 -15q-29 -10 -40 -30.5t-13 -67.5q-4 -78 -4 -465 q0 -451 4 -553q4 -25 12 -26q25 -6 342 -7q227 0 301 4q8 0 13 17q4 33 4 536q0 444 -4 519q-4 55 -46 69q-37 12 -104 19q-4 4 -3 16t5 16q20 0 99 -3t139 -3q57 0 136 3t91 3q4 -2 4 -15t-4 -17q-72 -8 -94 -17q-31 -10 -42 -32.5t-14 -77.5q-6 -113 -6 -459 q0 -371 4 -485q2 -33 6.5 -51.5t14.5 -33t29 -20.5q31 -12 114 -20q2 -4 1 -16.5t-5 -16.5q-20 0 -96 3t-129 3h-299q-35 0 -47 -31q-35 -86 -68 -313q-4 -4 -18.5 -4t-18.5 2q-29 231 -63 317q-16 29 -45 29h-287q-78 0 -250 -6q-4 2 -5 16.5z" />
<glyph unicode="&#x410;" horiz-adv-x="1146" d="M-72 10.5q0 14.5 4 16.5q106 14 142.5 41.5t81.5 134.5q61 150 354 950q20 61 27 98q2 0 21.5 -1t35.5 -1h27q12 0 19 1t9 1l25 -90q6 -18 149.5 -452.5t180.5 -528.5q41 -96 70.5 -118.5t129.5 -34.5q4 -4 2 -17.5t-6 -15.5q-154 6 -227 6q-168 0 -242 -6q-2 4 -2 15 t2 18q80 12 100 20q35 16 23 55q-12 47 -133 404l-8 6q-6 4 -8 4q-20 2 -177 2q-147 0 -170 -2q-12 0 -16 -14q-121 -326 -127 -377q-2 -18 -1 -33.5t15.5 -29t44.5 -19.5q51 -12 88 -16q2 -4 1 -16.5t-5 -16.5q-16 0 -99 3t-134 3q-53 0 -116.5 -3t-76.5 -3q-4 2 -4 16.5z M377 600q0 -10 8 -12q18 -2 164 -2q125 0 139 2q8 0 4 12l-147 467q-8 0 -8 -2q-17 -43 -160 -465z" />
<glyph unicode="&#x411;" horiz-adv-x="1081" d="M31 9.5q0 13.5 4 17.5q100 10 123 16q29 8 39 29.5t14 77.5q6 96 6 485q0 412 -6 489q-4 66 -49 80q-29 10 -111 19q-4 4 -3 16t5 16l240 -6h430q125 0 178 15q10 0 10 -11q-29 -84 -39 -288q0 -4 -16 -6.5t-18 2.5q-10 111 -33 169q-23 55 -88 60q-242 8 -318 0 q-23 -2 -22 -37q-4 -74 -4 -448q0 -8 6 -8.5t75.5 1.5t135.5 2q205 0 307 -92t102 -237q0 -242 -233 -334q-119 -49 -313 -49q-31 0 -189 4t-229 2q-4 2 -4 15.5zM373 635q0 -381 6 -506q0 -33 20 -51q51 -41 168 -41q133 0 196.5 76.5t63.5 205.5q0 330 -370 330 q-53 0 -76 -2q-8 0 -8 -12z" />
<glyph unicode="&#x412;" horiz-adv-x="1083" d="M32 10.5q1 14.5 5 16.5q92 10 117 16q29 8 42 31.5t15 79.5q6 96 6 477q0 410 -4 489q-6 70 -49 86q-23 8 -113 19q-4 2 -4 15t4 15q29 0 71 -2t80 -3t79 -1q51 0 137 2t157 2q55 0 106.5 -9t110 -35.5t93.5 -86t35 -145.5q0 -88 -55.5 -161t-157.5 -111q-2 -4 0 -7 q137 -29 218 -108.5t81 -206.5q0 -244 -244 -348q-111 -47 -299 -47q-20 0 -185 4t-243 2q-4 2 -3 16.5zM371 645q0 -426 8 -512q4 -35 31 -55q49 -39 153 -39q266 0 266 297q0 156 -97 238.5t-265 82.5q-72 0 -88 -4zM371 719q0 -12 8 -12q37 -4 104 -5q137 0 185 29 q90 59 90 199q0 276 -299 276q-49 0 -66 -8q-16 -6 -16 -33q-6 -135 -6 -446z" />
<glyph unicode="&#x413;" horiz-adv-x="978" d="M51 10.5q0 12.5 2 16.5q74 6 94 12q39 8 51.5 32.5t14.5 84.5q4 139 4 481q0 395 -4 457q-2 41 -4 56t-12.5 30.5t-32.5 25.5q-12 4 -109 19q-2 2 -2 15t2 15q8 0 86 -3t146 -3h446q119 0 180 15q8 0 9 -9q-25 -76 -37 -299q-2 -6 -17.5 -7t-17.5 3q-10 125 -35 178 q-14 31 -34.5 44.5t-61.5 15.5q-47 2 -162 2t-154 -2q-25 -2 -24 -35q-4 -88 -4 -510q0 -90 1 -266t1 -215q4 -59 16.5 -86t50.5 -37q43 -10 113 -14q8 -23 0 -33q-29 0 -113 3t-143 3q-55 0 -135 -3t-113 -3q-2 4 -2 16.5z" />
<glyph unicode="&#x414;" horiz-adv-x="1255" d="M49 59q70 4 98 11q14 2 31 28q51 92 377 1045q23 63 29 108q2 0 18 -1t25 -1q12 0 27.5 1t17.5 1q6 -33 37 -118q324 -905 383 -1037q8 -25 32 -24q51 0 105 4q6 -6 6 -13q-51 -145 -92 -393q-4 -8 -18.5 -11t-20.5 1q-6 240 -39 309q-16 31 -47 31h-770q-27 0 -35 -18 q-39 -74 -68 -308q-2 -6 -17 -8t-19 2q-13 233 -60 391zM258 84q-4 -16 12 -16q70 -4 308.5 -4.5t322.5 4.5q10 0 10 16q-4 27 -153.5 444.5t-177.5 485.5q-2 2 -5.5 2t-5.5 -2q-272 -787 -311 -930z" />
<glyph unicode="&#x415;" horiz-adv-x="1034" d="M8 9.5q0 13.5 4 17.5q102 8 131 16q35 10 50.5 33.5t19.5 83.5q4 98 4 518q0 342 -4 424q-4 57 -15.5 77.5t-47.5 28.5q-29 10 -93 17q-4 4 -3 15t5 15q16 0 92 -3t140 -3h391q164 0 215 8l2 -2q4 -2 4 -4q-20 -76 -37 -268q-4 -4 -17 -4t-18 2q-4 74 -22 131 q-12 39 -32.5 57.5t-74.5 20.5q-43 4 -159.5 4t-145.5 -4q-20 -2 -20 -29q-2 -63 -4 -252.5t0 -220.5q0 -16 8 -16q41 -2 155.5 -2t161.5 4q29 2 47.5 13t25.5 23.5t15 34.5q12 33 19 72q4 2 19.5 2t17.5 -2q-14 -86 -15 -184q0 -45 2 -100.5t2 -69.5q-4 -6 -18 -6t-16 4 q-6 43 -15 71q-16 66 -82 72q-39 2 -158.5 3t-158.5 -1q-10 0 -10 -16q-2 -39 0 -202t4 -251q2 -63 47 -71q61 -12 250 -13q59 0 96 8.5t50.5 16.5t31.5 26q53 47 113 191q2 2 14 -4t14 -10q-6 -43 -35.5 -136.5t-46.5 -128.5q-10 -16 -28.5 -19t-91.5 -3q-41 0 -188.5 3 t-309.5 3q-72 0 -158 -3t-123 -3q-4 2 -4 15.5z" />
<glyph unicode="&#x416;" horiz-adv-x="1802" d="M-35 9.5q0 13.5 4 17.5q106 8 152.5 34.5t95.5 88.5q25 33 67 95t85 127.5t53 80.5q61 92 104 137t99 72q4 4 0 8q-70 53 -189 284q-59 117 -99 156t-83 39q-63 0 -137 -37q-4 -2 -10.5 5t-6.5 11q0 68 29 119q10 18 25 25q23 12 53 12q82 0 128 -47t99 -154 q98 -201 156 -295q39 -63 88 -90.5t139 -27.5q0 395 -2 436q-2 33 -5 50.5t-18.5 31.5t-41.5 20q-12 2 -30 5.5t-37 5.5t-28 4q-4 4 -2 17t6 15q12 0 94.5 -3t133.5 -3q66 0 143 4l78 2q6 -2 6 -15t-8 -15q-31 -4 -72 -15q-41 -8 -51 -31.5t-12 -84.5v-416q0 -8 10 -8 q78 0 120 18.5t79 63.5q49 57 112 182q102 207 168 278.5t156 71.5q37 0 63 -20q12 -6 13 -23q0 -61 -33 -121q-2 -6 -9.5 -9t-9.5 -1q-45 37 -106 37q-72 0 -158 -166q-129 -242 -207 -307q-2 -2 -2 -5t2 -5q78 -37 142 -132q104 -162 205 -307q86 -127 140 -163.5 t167 -34.5q4 -2 3 -16.5t-5 -16.5q-27 -6 -121 -7t-113 3q-88 14 -137 63q-70 70 -295 436q-84 141 -182 142q-6 0 -6 -8q0 -297 4 -478q2 -51 16 -72.5t55 -31.5q18 -6 86 -14q4 -4 4.5 -16.5t-6.5 -16.5q-6 0 -41.5 1t-92 3t-111.5 2q-29 0 -213 -6q-6 0 -6 14.5t4 18.5 l61 10q53 8 68.5 37.5t19.5 115.5q2 94 2 441q-117 -10 -178 -101q-37 -53 -138.5 -215.5t-115.5 -183.5q-59 -74 -97 -99.5t-95 -33.5q-94 -10 -222 -4q-6 2 -6 15.5z" />
<glyph unicode="&#x417;" horiz-adv-x="944" d="M49 276q2 4 15.5 10.5t17.5 4.5q78 -236 260 -277q41 -10 88 -10q125 0 192.5 78t67.5 229q0 322 -305 322q-33 0 -76 -6q-2 0 -4 5t0 7l27 47q20 -2 59 -2q233 0 234 258q0 127 -56.5 207t-171.5 80q-92 0 -154.5 -55.5t-109.5 -206.5q-4 -2 -18.5 2t-16.5 8 q18 94 35 248q51 10 98 20q135 33 222 33q176 0 260 -80t84 -215q0 -98 -61.5 -176t-162.5 -117q-4 -4 0 -8q133 -33 218.5 -113t85.5 -207q0 -182 -138.5 -292.5t-347.5 -110.5q-133 0 -274 53q-14 16 -37 108.5t-31 155.5z" />
<glyph unicode="&#x418;" horiz-adv-x="1441" d="M45 10.5q0 12.5 4 16.5q72 6 101 16q29 8 43 27.5t17 43t5 81.5q2 66 2 446q0 406 -4 475q-6 74 -45 86q-33 10 -117 21q-8 16 2 32q2 0 80 -3t164 -3q47 0 225 6q2 -4 2 -16t-4 -16q-57 -6 -86 -15q-31 -10 -42 -27.5t-13 -64.5q-4 -76 -4 -840q0 -4 3 -5t7 3 q8 10 87 101.5t165 192t180 212t160.5 192.5t79.5 99q10 16 10 29v39q-2 53 -43 65q-33 10 -104 19q-6 4 -5.5 16t5.5 16q14 0 93 -3t142 -3q55 0 134 3t93 3q4 -2 3 -15t-5 -17q-12 -2 -32.5 -5.5t-36 -5.5t-25.5 -6q-33 -10 -44 -30.5t-13 -75.5q-4 -152 -4 -467 q0 -410 6 -488q4 -47 13 -68.5t36 -29.5q31 -12 117 -20q0 -29 -6 -33q-35 0 -107 3t-129 3q-90 0 -244 -6q-4 4 -4 16.5t4 16.5q96 10 113 20q23 8 31 30.5t10 69.5q2 61 2 836q0 4 -5 5t-7 -3q-18 -27 -341 -403.5t-327 -382.5q-12 -12 -12 -35q2 -63 13 -86t46 -33 q45 -14 98 -18q2 -4 1 -17.5t-5 -15.5q-39 0 -109.5 3t-117.5 3q-98 0 -252 -6q-4 4 -4 16.5z" />
<glyph unicode="&#x419;" horiz-adv-x="1441" d="M45 10.5q0 12.5 4 16.5q72 6 101 16q29 8 43 27.5t17 43t5 81.5q2 66 2 446q0 406 -4 475q-6 74 -45 86q-33 10 -117 21q-8 16 2 32q2 0 80 -3t164 -3q47 0 225 6q2 -4 2 -16t-4 -16q-57 -6 -86 -15q-31 -10 -42 -27.5t-13 -64.5q-4 -76 -4 -840q0 -4 3 -5t7 3 q8 10 87 101.5t165 192t180 212t160.5 192.5t79.5 99q10 16 10 29v39q-2 53 -43 65q-33 10 -104 19q-6 4 -5.5 16t5.5 16q14 0 93 -3t142 -3q55 0 134 3t93 3q4 -2 3 -15t-5 -17q-12 -2 -32.5 -5.5t-36 -5.5t-25.5 -6q-33 -10 -44 -30.5t-13 -75.5q-4 -152 -4 -467 q0 -410 6 -488q4 -47 13 -68.5t36 -29.5q31 -12 117 -20q0 -29 -6 -33q-35 0 -107 3t-129 3q-90 0 -244 -6q-4 4 -4 16.5t4 16.5q96 10 113 20q23 8 31 30.5t10 69.5q2 61 2 836q0 4 -5 5t-7 -3q-18 -27 -341 -403.5t-327 -382.5q-12 -12 -12 -35q2 -63 13 -86t46 -33 q45 -14 98 -18q2 -4 1 -17.5t-5 -15.5q-39 0 -109.5 3t-117.5 3q-98 0 -252 -6q-4 4 -4 16.5zM487 1454q0 16 18.5 41t41.5 37q16 0 18 -4q29 -121 187 -121q125 0 198 92q2 4 19.5 16.5t21.5 12.5q8 0 8 -8q-31 -82 -111.5 -138.5t-187.5 -56.5q-84 0 -148.5 37t-64.5 92z " />
<glyph unicode="&#x41a;" horiz-adv-x="1216" d="M48 10.5q-1 14.5 3 16.5q66 8 78 10q53 10 66.5 39.5t17.5 116.5q4 188 4 477q0 354 -4 438q-2 33 -5 48t-17.5 30.5t-40.5 21.5q-45 10 -93 15q-4 4 -3 17t7 15q14 0 99.5 -3t136.5 -3q61 0 130 3t85 3q4 -2 5 -16t-5 -16q-53 -8 -72 -13q-43 -8 -53 -31.5t-12 -84.5 q-2 -80 -2 -424q0 -8 8 -8q150 0 215 83q55 76 104 177q100 211 168 286.5t164 75.5q29 0 58 -20q12 -6 12 -25q0 -70 -29 -123q-12 -16 -18 -10q-59 41 -109 41q-43 0 -76.5 -37t-85.5 -139q-133 -256 -194 -299q-4 -4 -2 -8q45 -20 98 -95l258 -350q102 -131 154.5 -159.5 t167.5 -32.5q4 0 5 -8.5t-1 -16.5t-6 -8q-37 -6 -135.5 -3t-127.5 9q-72 10 -122 59q-20 20 -45 52t-61 80.5t-61.5 86t-75.5 108.5t-77 110q-49 68 -86 96.5t-96 30.5q-6 0 -6 -9q0 -287 4 -471q2 -53 14 -72.5t53 -29.5q20 -4 88 -14q4 -4 3 -16.5t-5 -16.5q-10 0 -102 3 t-137 3q-68 0 -234 -6q-6 2 -7 16.5z" />
<glyph unicode="&#x41b;" horiz-adv-x="1146" d="M-70 10.5q0 14.5 2 16.5q106 14 142.5 42.5t81.5 133.5q156 365 354 944q20 55 29 104l18 -2h37h27q12 0 19 1t9 1q14 -68 25 -96q8 -23 85 -257t147.5 -441t97.5 -277q41 -96 70.5 -118.5t129.5 -34.5q2 -4 1 -17.5t-5 -15.5q-154 6 -227 6q-170 0 -244 -6q-2 4 -2 15 t2 18q80 12 100 20q35 16 23 55q-70 244 -309 957h-8q-29 -88 -161 -458t-151 -425q-20 -66 -9 -94.5t60 -38.5q45 -10 86 -16q2 -4 1 -16.5t-5 -16.5q-16 0 -98 3t-133 3q-53 0 -116.5 -3t-76.5 -3q-2 2 -2 16.5z" />
<glyph unicode="&#x41c;" horiz-adv-x="1648" d="M2 10.5q0 12.5 4 16.5l80 12q47 8 66.5 40t31.5 122q12 92 38 423.5t32 477.5q0 74 -55 94q-47 18 -129 29q-4 4 -3 16t5 14q10 0 114.5 -3t227.5 -3q4 -45 39 -114q94 -215 229 -509t162 -341q2 -6 8 0q29 53 184.5 379.5t218.5 465.5q35 82 39 119q100 0 194.5 3 t125.5 3q4 -2 4 -15t-4 -17q-70 -6 -117 -21q-61 -14 -61 -86q-2 -88 6 -461.5t14 -496.5q4 -55 18.5 -81t57.5 -36q35 -8 100 -14q2 -2 2 -14.5t-2 -18.5q-12 0 -98 3t-152 3q-100 0 -241 -6q-4 2 -4 15.5t4 17.5q63 8 94 18q55 14 55 98q4 289 -10 893q-4 4 -8 0 q-8 -18 -88 -187t-148.5 -317.5t-141.5 -313.5t-95 -230q-4 -2 -18.5 -2t-18.5 2q-23 78 -121 312.5t-203.5 476t-122.5 284.5q-6 0 -6 -4q-10 -127 -26.5 -446.5t-16.5 -417.5q0 -72 13.5 -105t54.5 -43q20 -6 108 -18q4 -4 3 -17.5t-5 -15.5q-18 0 -85.5 3t-121.5 3 q-57 0 -137 -3t-90 -3q-4 4 -4 16.5z" />
<glyph unicode="&#x41d;" horiz-adv-x="1439" d="M47 9.5q0 13.5 4 17.5q59 6 99 18q41 12 51 43t14 111q2 66 2 442q0 406 -4 475q-6 78 -53 90q-23 6 -109 17q-12 12 0 32q27 0 116 -3t130 -3q53 0 225 6q4 -4 3 -17t-5 -15q-47 -4 -82 -15q-33 -10 -45 -27.5t-14 -66.5q-4 -88 -4 -420q0 -12 10 -16q12 -4 358 -4 q293 0 316 2q8 0 8 10q0 377 -4 451q-4 55 -43 69q-45 12 -100 17q-4 4 -5.5 16t5.5 16q14 0 94 -3t141 -3q57 0 137 3t88 3q12 -20 0 -32q-84 -14 -90 -17q-33 -12 -45 -31.5t-14 -76.5q-6 -117 -6 -488q0 -365 6 -467q4 -47 13 -67.5t38 -28.5q31 -12 113 -20 q4 -4 2 -16.5t-6 -16.5q-37 0 -111 3t-125 3q-96 0 -244 -6q-12 16 0 33q72 8 97 14q33 10 44 30.5t13 75.5q2 61 2 443q0 14 -10 14q-31 2 -318 2q-336 0 -356 -4q-8 0 -8 -12q0 -322 4 -420q0 -6 1 -21.5t2 -20.5t2 -17.5t3 -16.5t5 -12t6 -12t8.5 -9.5t11.5 -8.5t14 -5 q51 -14 109 -20q4 -4 1 -17.5t-7 -15.5q-172 6 -234 6q-109 0 -250 -6q-4 2 -4 15.5z" />
<glyph unicode="&#x41e;" horiz-adv-x="1474" d="M100 635q0 213 113 381q86 123 235.5 196.5t307.5 73.5q293 0 455.5 -185.5t162.5 -453.5q0 -240 -121 -416q-86 -129 -228 -198.5t-300 -69.5q-133 0 -252 52.5t-199 138.5q-174 192 -174 481zM281 682q0 -170 63.5 -328.5t192.5 -249.5q111 -78 264 -77q139 0 227 77 q174 150 174 478q0 168 -58.5 319.5t-176.5 237.5q-117 90 -275 90q-104 0 -196 -51q-109 -66 -162 -198t-53 -298z" />
<glyph unicode="&#x41f;" horiz-adv-x="1421" d="M47 1240q0 13 4 15q33 0 122 -3t124 -3h838q49 0 130 3t95 3q6 -20 0 -30q-12 -2 -44 -8.5t-44 -10.5q-35 -12 -47.5 -30.5t-14.5 -71.5q-6 -117 -6 -494q0 -416 6 -465q4 -49 13.5 -69.5t38.5 -28.5q23 -12 112 -20q2 -2 0 -15.5t-4 -17.5q-23 0 -104.5 3t-132.5 3 q-70 0 -242 -6q-2 2 -2 16.5t2 16.5q80 8 113 20q39 16 40 100q2 29 3 504q0 487 -5 527q-4 14 -14 14q-29 2 -322.5 2t-318.5 -2q-8 0 -8 -12q-4 -74 -4 -531q0 -328 4 -479q2 -59 12 -86t43 -37q23 -8 107 -20q0 -31 -4 -33q-39 0 -114 3t-122 3q-78 0 -250 -6 q-2 4 -2 16.5t2 16.5q59 6 99 18q41 12 51 43t14 111q2 66 2 452q0 395 -4 465q-4 43 -14.5 61.5t-38.5 28.5q-31 10 -109 17q-4 4 -4 17z" />
<glyph unicode="&#x420;" horiz-adv-x="1032" d="M42 10.5q-1 12.5 3 16.5q70 8 96.5 14t36.5 12t19.5 31t11.5 76q8 131 8 485q0 385 -4 449q-2 55 -13.5 80.5t-47.5 33.5q-49 12 -99 17q-2 2 0 15t4 15q12 0 95.5 -3t136.5 -3t146 2t151 2q166 0 260 -71q123 -96 125 -267q2 -127 -56.5 -215t-146.5 -133 q-100 -51 -209 -51q-61 0 -90 10q-8 6 -20 31q0 10 6 10q61 -6 84 -6q84 0 143 33q123 74 119 274q0 154 -80 247t-252 93q-57 0 -76 -8q-10 -4 -14 -26q-6 -147 -6 -484q0 -471 2 -522q2 -72 16.5 -94.5t61.5 -32.5q23 -4 98 -14q6 -2 6 -16.5t-4 -16.5q-23 0 -117 3 t-139 3q-51 0 -141 -3t-109 -3q-4 4 -5 16.5z" />
<glyph unicode="&#x421;" horiz-adv-x="1312" d="M100 637q0 176 80 322.5t240 232.5q172 94 420 94q88 0 228 -19.5t151 -19.5q-33 -131 -37 -295q-2 -4 -12.5 -6t-18.5 -2t-8 4q-14 115 -38 165t-77 77q-96 49 -258 49q-227 0 -356 -154.5t-129 -429.5q0 -289 148.5 -459.5t406.5 -170.5q158 0 243 81q61 61 134 189 q4 2 16 -4t14 -12q-20 -78 -69.5 -166t-83.5 -107q-139 -43 -295 -43q-332 0 -515.5 175t-183.5 499z" />
<glyph unicode="&#x422;" horiz-adv-x="1230" d="M35 965q29 145 37 311l10 4q66 -31 160 -31h753q104 0 181 25q8 0 8 -4q-25 -80 -41 -307q-2 -4 -18.5 -4.5t-18.5 4.5q-8 111 -31 165q-23 53 -80 60q-53 2 -162.5 3t-138.5 -1q-10 -4 -10 -19q0 -776 8 -989q4 -80 19.5 -105.5t52.5 -35.5q27 -8 100 -16q4 -2 2 -15.5 t-6 -15.5q-29 0 -121 3t-133 3q-74 0 -172 -3t-119 -3q-4 6 -4 16t4 15q92 10 131 18q43 8 55.5 39t16.5 106q6 135 6 990q0 14 -12 14q-27 2 -140.5 1t-144.5 -3q-51 -2 -82 -53q-27 -43 -75 -179q-2 -4 -17.5 -0.5t-17.5 7.5z" />
<glyph unicode="&#x423;" horiz-adv-x="1112" d="M-33 1239q0 12 4 16q14 0 100.5 -3t135.5 -3q63 0 135 3t74 3q4 -6 4 -18t-4 -14q-88 -16 -92 -19q-20 -8 -13 -33q37 -90 168 -369.5t160 -332.5q4 -12 10 0q80 156 165 365.5t106 300.5q10 49 -31 65q-39 14 -111 23q-4 4 -4 17t6 15l185 -6q41 0 111.5 3t84.5 3 q4 -4 3 -16t-5 -16q-86 -12 -114.5 -37t-69.5 -121q-229 -543 -391 -838q-156 -297 -299 -297q-47 0 -78 27q-45 49 -41 133q0 20 10 27q98 -51 172 -51q57 0 98 39.5t97 152.5q2 6 -4 37q-190 440 -363 778q-45 90 -74.5 113.5t-132.5 36.5q-2 4 -2 16z" />
<glyph unicode="&#x424;" horiz-adv-x="1376" d="M100 635q0 256 205 385q117 78 309 94q-2 47 -5 69.5t-16 43t-38 24.5q-16 4 -78 13q-4 4 -3 17t5 15q154 -6 207 -6q98 0 215 6q6 -2 6 -15t-6 -17q-57 -8 -76 -13q-37 -10 -48 -38.5t-11 -96.5q221 -10 365.5 -126t144.5 -351q0 -254 -174 -379q-121 -92 -336 -110 q0 -76 10 -108t47 -40q25 -6 101 -16q4 -4 2 -17.5t-6 -17.5q-92 6 -236 6q-102 0 -217 -6q-12 16 0 35q51 6 86 12q41 6 51 38t10 107q-250 14 -382 142.5t-132 349.5zM270 676q0 -205 91.5 -333t244.5 -146q8 0 8 10v852q0 10 -8 10q-162 -8 -248 -108.5t-88 -284.5z M766 203q0 -8 8 -8q160 6 244 102t84 324q0 160 -77 289.5t-251 158.5q-8 0 -8 -8v-858z" />
<glyph unicode="&#x425;" horiz-adv-x="1191" d="M-33 9.5q0 13.5 2 17.5q74 8 109 16q70 16 155 133q104 141 295 428q4 10 0 17q-158 287 -247 434q-27 45 -35 57t-26.5 37t-37 36t-45.5 19q-57 14 -121 21q-4 4 -4 16t4 14q39 0 118 -3t145 -3q123 0 202 6q4 -4 4 -15t-4 -15q-55 -12 -67 -17q-25 -8 -13 -34 q10 -27 55.5 -106t102.5 -177t78 -137q6 -4 10 0q213 332 234 397q14 43 -23 51q-25 8 -102 21q-2 4 0 17t4 15q16 0 79.5 -3t112.5 -3q68 0 143.5 3t80.5 3q4 -18 0 -30q-90 -16 -103 -21q-49 -14 -83 -42.5t-99 -127.5q-123 -188 -213 -332q-4 -4 0 -16q217 -383 250 -436 q74 -123 109.5 -159t90.5 -48q25 -6 105 -14q4 -2 4 -17.5t-6 -17.5l-113 4q-113 4 -194 2q-39 -2 -112 -5t-83 -3q-4 4 -5 17.5t3 17.5q82 16 88 18q29 10 14 39q-53 119 -260 465q-2 4 -5 4t-3 -4q-217 -315 -280 -447q-18 -47 30 -59q49 -10 90 -16q2 -4 1 -16.5 t-5 -16.5q-25 0 -100.5 3t-112.5 3q-35 0 -215 -8q-2 4 -2 17.5z" />
<glyph unicode="&#x426;" horiz-adv-x="1425" d="M45 10.5q0 14.5 4 16.5q63 6 101 18q29 8 42 26.5t16 39t5 77.5q4 131 4 453q0 403 -4 473q-4 68 -45 86q-27 10 -117 23q-2 4 -2 16t2 16q29 0 105.5 -3t140.5 -3q31 0 227 6q2 -2 1 -15t-3 -17q-49 -4 -84 -15q-33 -10 -45 -29.5t-14 -64.5q-4 -74 -4 -477 q0 -502 6 -541q4 -20 16 -26q25 -6 344 -7q256 0 293 5q8 0 13 14q4 33 4 534q0 442 -4 521q-6 55 -43 67q-29 10 -101 19q-10 10 0 32q14 0 94 -3t140 -3q49 0 131 3t96 3q8 -23 0 -32q-80 -14 -94 -19q-31 -10 -42 -31.5t-14 -76.5q-6 -113 -6 -486q0 -451 6 -516 q8 -25 21 -24q88 0 115 2q6 -6 6 -13q-72 -162 -99 -397q-4 -6 -20 -7t-23 3q-10 211 -34 299q-12 41 -58 43h-821q-80 0 -252 -6q-4 2 -4 16.5z" />
<glyph unicode="&#x427;" horiz-adv-x="1220" d="M20 1223q-8 18 3 32q12 0 83.5 -3t143.5 -3q55 0 127 3t76 3q2 -2 2 -15t-2 -17q-72 -10 -91.5 -25.5t-23.5 -48.5q-6 -53 0 -250q2 -86 29.5 -143.5t76 -81t88 -30.5t95.5 -7q125 0 215 45q4 4 4 10q0 379 -4 430q-2 43 -15.5 60.5t-50.5 27.5q-25 6 -80 13q-4 4 -4 17 t4 15q27 0 102.5 -3t129.5 -3q70 0 143.5 3t85.5 3q4 -4 5 -16t-3 -16q-74 -12 -88 -17q-35 -10 -47 -29.5t-14 -72.5q-6 -276 -6 -465q2 -432 6 -512q4 -37 16 -56.5t51 -29.5q31 -8 97 -14q4 -4 2 -17.5t-7 -15.5q-23 0 -97.5 3t-129.5 3q-66 0 -145.5 -3t-106.5 -3 q-2 2 -2 16.5t2 16.5q59 4 88 10q43 10 53.5 38.5t12.5 121.5q2 106 2 440q0 2 -2 6t-4 2q-164 -86 -316 -86q-211 0 -299 117q-49 66 -49 227q-2 150 -2 199q0 47 -14.5 72.5t-57.5 35.5q-21 5 -82 13z" />
<glyph unicode="&#x428;" horiz-adv-x="1832" d="M45 10.5q0 14.5 4 16.5q63 6 101 18q29 8 42 26.5t16 39t5 77.5q4 131 4 453q0 406 -4 475q-2 39 -12.5 56.5t-32.5 27.5q-20 10 -117 23q-4 4 -4 16t4 16q14 0 95 -3t151 -3q59 0 225 6q2 -4 2 -16t-2 -16q-53 -4 -86 -15q-31 -10 -43 -28.5t-14 -65.5q-4 -74 -4 -477 q0 -518 6 -547q4 -18 20 -24q14 -4 181.5 -5.5t220.5 0.5q27 0 28 27q6 68 7 567q0 428 -2 463q-4 66 -45 84q-29 12 -103 21q-6 12 0 32q12 0 82 -3t148 -3q29 0 225 6q8 -16 -2 -32q-49 -4 -84 -15q-31 -8 -41 -28.5t-12 -69.5q-6 -55 -7 -461q0 -481 7 -559q6 -27 22 -27 q362 -10 418 0q10 4 12 17q4 47 4 541q0 438 -4 516q-6 55 -49 67q-27 10 -94 19q-4 4 -4 16t4 16q14 0 94 -3t139 -3q57 0 136 3t92 3q4 -2 4 -15t-4 -17q-80 -14 -95 -19q-31 -10 -42 -31.5t-13 -76.5q-6 -227 -6 -465q0 -420 4 -494q4 -45 13.5 -63.5t35.5 -26.5 q37 -14 115 -20q2 -4 1 -16.5t-7 -16.5q-37 0 -107.5 3t-111.5 3h-1260q-80 0 -252 -6q-4 2 -4 16.5z" />
<glyph unicode="&#x429;" horiz-adv-x="1832" d="M45 10.5q0 14.5 4 16.5q63 6 101 18q29 8 42 26.5t16 39t5 77.5q4 131 4 453q0 406 -4 475q-2 39 -12.5 56.5t-32.5 27.5q-20 10 -117 23q-2 4 -2 16t2 16q33 0 118 -3t128 -3q29 0 225 6q4 -4 4 -16t-4 -16q-53 -4 -86 -15q-31 -10 -43 -28.5t-14 -65.5q-4 -78 -4 -477 q0 -485 6 -545q2 -20 16 -26q12 -6 410 -5q25 0 27 27q4 68 4 567q0 391 -4 461q-4 41 -11.5 59.5t-29.5 26.5q-25 12 -105 21q-8 16 2 32q14 0 88 -3t140 -3q29 0 225 6q2 -4 2 -16t-4 -16q-49 -4 -84 -15q-31 -8 -41 -27.5t-12 -66.5q-6 -55 -7 -465q0 -481 7 -559 q6 -27 22 -27q39 0 192.5 -2t225.5 0q8 0 12 17q4 47 4 538q0 442 -4 521q-6 55 -47 65q-35 12 -96 21q-10 10 0 32q14 0 94 -3t139 -3q49 0 132 3t98 3q2 -4 1 -16t-3 -16q-80 -14 -95 -19q-31 -10 -43 -31.5t-14 -76.5q-4 -152 -4 -486q0 -469 6 -516q4 -25 21 -24 q88 0 114 2q6 -2 6 -13q-61 -154 -90 -395q-4 -6 -20.5 -8t-22.5 2q-6 203 -37 307q-12 35 -51 35h-1243q-80 0 -252 -6q-4 2 -4 16.5z" />
<glyph unicode="&#x42a;" horiz-adv-x="1253" d="M37 965q35 205 35 305q0 6 8 6q61 -27 162 -27h258q51 0 129 3t96 3q4 -4 4 -16t-4 -16l-90 -15q-33 -10 -42 -30.5t-11 -79.5q-2 -80 -2 -375l6 -10q104 8 202 8q197 0 292.5 -93t95.5 -239q0 -121 -60.5 -216t-179.5 -142q-104 -43 -270 -43q-41 0 -198 3t-224 3 q-4 2 -3 16.5t5 16.5q92 8 123 18q29 10 38 29.5t13 75.5q6 96 6 483v278q0 186 -2 267q0 14 -10 14q-27 2 -92.5 1t-94.5 -3q-49 -2 -80 -49q-29 -43 -77 -185q-6 -2 -18.5 0.5t-14.5 8.5zM580 651q0 -432 4 -518q4 -35 20 -51q53 -39 158 -39q240 0 239 289 q0 336 -317 336q-55 0 -96 -4q-8 -1 -8 -13z" />
<glyph unicode="&#x42b;" horiz-adv-x="1540" d="M32 9.5q1 13.5 5 17.5q92 8 123 18q29 10 38 29.5t13 75.5q6 96 6 485q0 412 -6 489q-2 41 -12.5 57.5t-34.5 24.5q-33 12 -103 17q-4 2 -3 16t5 16q29 0 72 -2t81 -3t77 -1q51 0 129 3t96 3q2 -4 2 -16t-2 -16q-53 -6 -88 -15q-33 -10 -43 -30.5t-12 -79.5 q-4 -160 -4 -377l6 -8q104 8 203 8q197 0 292 -94.5t95 -239.5q0 -123 -62.5 -215t-181.5 -141q-104 -43 -295 -43q-41 0 -183.5 3t-209.5 3q-4 2 -3 15.5zM371 651q0 -432 4 -518q4 -37 26 -53q49 -39 146 -39q123 0 184.5 77t61.5 216q0 168 -76 252t-242 84q-55 0 -96 -4 q-8 -1 -8 -15zM981 9q0 11 4 16q53 4 92 16q37 10 48.5 29.5t15.5 64.5q6 90 6 555q0 319 -4 416q-10 72 -31 88q-8 6 -22 10q-27 10 -97 19q-4 4 -3 16t5 16q16 0 98.5 -3t139.5 -3q61 0 127.5 3t81.5 3q4 -4 4 -16t-4 -16q-29 -4 -76 -15q-33 -10 -43 -31.5t-14 -76.5 q-6 -121 -6 -459q0 -350 4 -485q2 -37 6 -54.5t17 -35t40 -23.5q29 -8 105 -16q4 -4 3 -16.5t-5 -16.5q-25 0 -101 3t-127 3q-61 0 -137 -3t-123 -3q-4 4 -4 15z" />
<glyph unicode="&#x42c;" horiz-adv-x="1062" d="M32 10.5q1 14.5 5 16.5q74 6 123 18q29 8 38 28.5t13 76.5q6 96 6 485q0 412 -4 489q-4 70 -51 82q-35 10 -101 17q-2 4 -2 16t4 16q190 -6 230 -6q51 0 129 4t96 4q2 -4 2 -16t-2 -16q-53 -6 -88 -15q-33 -10 -43 -31.5t-12 -80.5q-4 -156 -4 -375l6 -10q98 8 219 8 q195 0 292 -96.5t97 -241.5q0 -117 -65.5 -212t-184.5 -142q-100 -41 -270 -41q-41 0 -202 3t-228 3q-4 2 -3 16.5zM371 651q0 -432 4 -518q4 -37 20 -51q57 -45 154 -45q135 0 199.5 82t64.5 215q0 334 -348 334q-45 0 -86 -4q-8 -1 -8 -13z" />
<glyph unicode="&#x42d;" horiz-adv-x="1273" d="M86 270q2 6 14.5 13.5t18.5 5.5q72 -156 172 -213.5t231 -57.5q221 0 339 148.5t128 433.5q0 10 -8 10q-238 -16 -479 -16q-80 0 -105 4q-8 4 -4 12t30 39t34 33q55 -14 301 -20q117 -2 223 0q6 0 6 8q-6 258 -131 414.5t-344 156.5q-133 0 -206 -38t-116 -122 q-10 -20 -47 -123q-6 -2 -20 2.5t-17 10.5q35 150 44 278q29 0 100 11q229 27 272 26q154 0 272.5 -39t188.5 -100.5t115 -146.5t60.5 -167.5t15.5 -177.5q0 -317 -186.5 -504.5t-504.5 -187.5q-141 0 -284 45q-23 18 -58 102t-55 160z" />
<glyph unicode="&#x42e;" horiz-adv-x="1900" d="M49 10.5q0 12.5 4 16.5q63 4 94 12q35 8 46.5 28.5t15.5 65.5q8 119 8 557q0 326 -4 422q-2 31 -5 44t-14.5 27.5t-31.5 20.5q-25 8 -103 19q-2 4 -2 17t2 15q14 0 100.5 -3t143.5 -3q49 0 121 3t90 3q2 -4 2 -15t-2 -17l-82 -13q-31 -10 -43 -34.5t-14 -75.5 q-2 -68 -2 -389q0 -18 16 -23q121 -8 217 -2q12 195 105 338q80 123 215 194.5t293 71.5q274 0 427.5 -187.5t153.5 -455.5q0 -242 -114 -420q-82 -129 -216.5 -197.5t-283.5 -68.5q-268 0 -418 172q-158 186 -164 494q-23 -4 -231 -4q0 -406 2 -469q2 -35 6 -52.5t18.5 -35 t38.5 -23.5q12 -4 27.5 -6t39 -6t40.5 -6q4 -4 4 -16.5t-4 -16.5q-25 0 -110 4t-136 4q-57 0 -142 -3t-104 -3q-4 4 -4 16.5zM776 668q0 -401 223 -574q98 -74 242 -74q139 0 217 74q166 152 166 494q0 170 -52 321.5t-157 237.5q-104 88 -254 88q-111 0 -184 -51 q-100 -66 -150.5 -208t-50.5 -308z" />
<glyph unicode="&#x42f;" horiz-adv-x="1185" d="M-45 2q-2 12 0 16q82 8 111.5 22.5t95.5 86.5q41 47 124 163t149.5 195.5t109.5 100.5q6 2 0 8q-133 31 -214 117t-81 213q0 145 107.5 237t312.5 92q51 0 137 -2t116.5 -2t104.5 3t98 3q4 -2 4 -15t-4 -17l-79 -13q-72 -14 -74 -84q-4 -82 -4 -534q0 -354 6 -436 q2 -100 67 -117q10 -2 24.5 -4t34 -4t29.5 -4q2 -2 1 -16.5t-3 -16.5q-10 0 -99 3t-138 3q-51 0 -133 -3t-92 -3q-2 2 -2 16.5t2 16.5q45 4 90 14q31 10 43 31.5t14 83.5q2 41 2 415q0 14 -10 15q-33 0 -60 -4q-74 -8 -135 -93q-37 -47 -139 -193t-145 -196 q-49 -61 -101 -80q-96 -43 -264 -32q-4 2 -6 14zM420 944q0 -324 385 -313q10 0 10 10q0 49 -1 171t-2 221.5t-3 135.5q0 18 -18 27q-37 12 -117 12q-115 0 -184.5 -70.5t-69.5 -193.5z" />
<glyph unicode="&#x430;" horiz-adv-x="772" d="M72 197q0 53 22 98q29 16 186.5 67.5t192.5 69.5q12 6 12 19v79q0 70 -34 117q-55 78 -162 78q-45 0 -74 -18q-47 -33 -82 -148q-2 -2 -12 3t-18.5 15.5t-8.5 18.5q0 16 14.5 53t22.5 45q61 47 140 82t120 35q123 0 187 -102q43 -66 43 -201q0 -57 -3.5 -180t-3.5 -158 q0 -90 74 -90q39 0 70 10q0 -33 -8 -41q-66 -74 -160 -74q-70 0 -96 50q-10 18 -15 53q0 2 -3 4t-5 0q-158 -106 -227 -107q-59 0 -105 45q-67 68 -67 177zM213 229q0 -66 39 -107.5t102 -41.5q55 0 107 31q18 14 18 43q4 127 4 233q0 2 -2 4t-4 0q-225 -74 -250 -98 q-14 -15 -14 -64z" />
<glyph unicode="&#x431;" horiz-adv-x="927" d="M92 506q0 373 217 608q115 133 305 195q35 12 82 25.5t71 20.5t47.5 18t35.5 24q2 0 8 -5.5t6 -9.5q-4 -41 -40 -97t-81 -83q-45 -23 -77 -26q-16 -4 -73.5 -11.5t-113.5 -19.5q-129 -27 -186 -127t-57 -291q0 -47 6 -70q4 -6 10 0q61 66 143 110t156 44 q139 0 217 -105.5t78 -273.5q0 -217 -108.5 -337t-280.5 -120q-365 1 -365 531zM252 471q0 -104 22 -201q53 -250 224 -250q86 0 139 85t53 255q0 68 -11 128.5t-34.5 115.5t-70 89t-109.5 34q-92 0 -164 -74q-49 -53 -49 -182z" />
<glyph unicode="&#x432;" horiz-adv-x="811" d="M35 -6q-10 10 0 31q63 10 78 14q37 10 37 49q2 66 2 332v258q0 35 -19 47q-35 25 -92 31q-4 2 -4 14t4 16q348 10 405 11q41 0 79 -7.5t81 -24.5t68.5 -57t25.5 -96q0 -59 -37.5 -106t-111.5 -68q-6 -4 -2 -8q201 -39 201 -192q0 -137 -156 -209q-90 -41 -242 -41 q-53 0 -157.5 3t-159.5 3zM293 391q0 -221 2 -272q0 -45 33 -64q41 -23 96 -22q172 0 172 170q0 201 -297 194q-6 0 -6 -6zM293 449q0 -8 6 -9h109q78 0 106 25q47 33 47 108q0 188 -254 179q-12 0 -12 -13q0 -4 -1 -121.5t-1 -168.5z" />
<glyph unicode="&#x433;" horiz-adv-x="681" d="M20 9.5q0 13.5 3 17.5q49 4 75 14q20 8 26.5 23.5t8.5 62.5q4 49 4 274v275q-4 51 -22 63q-20 12 -84 25q-2 2 -2 15.5t4 13.5q6 0 66.5 -3.5t105.5 -3.5h297q76 0 143 7q6 0 6 -9q-18 -66 -37 -237q-4 -4 -15 -4t-15 2q-12 90 -33 141q-14 41 -57 45q-20 2 -99.5 3 t-95.5 -1q-14 0 -14 -20q-4 -80 -4 -297q0 -209 4 -303q2 -57 45 -72q27 -8 90 -14q4 -6 1 -18.5t-7 -14.5q-18 0 -96 3t-113 3q-49 0 -110.5 -3t-71.5 -3q-3 2 -3 15.5z" />
<glyph unicode="&#x434;" horiz-adv-x="835" d="M25 47q0 4 4 8q72 4 75 4q12 0 17 13q43 96 115.5 296.5t103.5 297.5q10 27 -6 63q-2 8 2 14q6 8 50 38t52 30q6 0 13 -12q209 -582 270 -715q12 -25 33 -25l82 2q2 0 5 -5t1 -7q-45 -127 -72 -305q-2 -4 -16.5 -6t-16.5 2q-4 152 -35 237q-10 23 -30 23h-486 q-23 0 -30 -18q-33 -78 -54 -236q-2 -6 -17 -7t-17 1q-6 172 -43 307zM193 68q-4 -10 6 -11h358q2 0 5 5.5t1 7.5q-29 86 -99.5 280.5t-90.5 239.5q-4 4 -8 0q-166 -499 -172 -522z" />
<glyph unicode="&#x435;" horiz-adv-x="790" d="M72 387q0 248 176 358q41 27 104.5 46.5t104.5 19.5q88 0 150.5 -52t86 -108.5t33.5 -118.5q4 -14 25 -16q6 -20 -9 -27q-109 -37 -522 -47q-12 0 -12 -22q4 -137 76 -225q84 -104 225 -105q133 0 223 86q8 0 8 -6q4 -18 -4 -35q-147 -160 -319 -160q-152 0 -240 99 q-106 114 -106 313zM215 506q0 -12 6 -12q45 -4 180.5 1t165.5 13q12 6 13 16q-10 92 -58.5 163t-130.5 71q-72 0 -121 -66.5t-55 -185.5z" />
<glyph unicode="&#x436;" horiz-adv-x="1210" d="M-31 9.5q0 13.5 4 15.5q57 6 82 19t62 60q18 25 77.5 111t92.5 129q35 49 96 72q-41 35 -98 162q-33 72 -56.5 92t-52.5 20q-33 0 -108 -31q-12 0 -13 9q0 78 17 110q18 33 67 33q53 0 92 -37t91 -170q31 -78 65 -131q43 -59 148 -59q0 213 -5 282q-2 49 -47 58 q-6 2 -25.5 5t-31.5 7q-6 14 4 27q8 0 69.5 -3.5t96.5 -3.5q37 0 76 2.5t66.5 3.5t31.5 1q12 -14 0 -27q-14 -4 -29.5 -7t-23.5 -5q-16 -4 -24.5 -8.5t-14.5 -19.5t-6 -44l-2 -268q70 2 105.5 18.5t60.5 52.5q31 47 59 117q55 131 96 170t90 39q43 0 62 -25q4 -25 -23 -116 q-6 -6 -14 -2q-45 20 -80 20q-23 0 -42 -20.5t-52 -89.5q-55 -119 -103 -156q61 -25 89 -60q35 -47 94 -139t82 -123q33 -43 55 -55t86 -16q2 -2 2 -16.5t-4 -16.5q-25 -4 -158 -4q-78 0 -123 59q-29 43 -84 139.5t-67 116.5q-47 74 -131 76q0 -178 4 -293q2 -43 51 -55 q14 -4 37.5 -7t30.5 -5q4 -4 2 -15.5t-7 -13.5q-2 0 -66.5 3t-113.5 3q-43 0 -115.5 -3t-74.5 -3q-12 16 0 29q12 4 33.5 8t33.5 6q43 10 45 47q4 23 5 299q-53 -2 -81 -22.5t-57 -65.5q-135 -221 -164 -254q-47 -51 -192 -51q-35 0 -68 4q-4 2 -4 15.5z" />
<glyph unicode="&#x437;" horiz-adv-x="700" d="M55 213q2 4 14.5 8t16.5 2q55 -201 250 -200q145 0 145 182q0 78 -49 128t-139 50q-23 0 -68 -4q14 35 19 67q16 -4 57 -4q74 0 106.5 34t32.5 108q0 94 -41 139t-106 45q-68 0 -108 -48t-74 -145q-4 -4 -16.5 0.5t-14.5 8.5q2 10 8 53t11 82t5 51q10 2 56.5 13.5 t92.5 19.5t85 8q121 0 187.5 -48t66.5 -142q0 -127 -150 -181q-4 -4 0 -6q88 -18 144.5 -67.5t56.5 -128.5q0 -90 -59.5 -151.5t-135 -85.5t-155.5 -24q-121 0 -199 43q-27 41 -39 193z" />
<glyph unicode="&#x438;" horiz-adv-x="956" d="M33 10.5q0 14.5 2 16.5q61 10 69 12q29 8 37.5 31.5t8.5 87.5q0 45 1 142t1 146q0 92 -5 244q-2 49 -45 60q-29 6 -63 10q-4 23 4 33q2 0 59.5 -3.5t112.5 -3.5q39 0 81 2.5t69.5 3.5t31.5 1q4 -6 5 -17.5t-3 -13.5q-25 -2 -63 -12q-41 -10 -43 -76v-418q0 -14 8 -6 q43 43 176 194.5t172 204.5q10 14 10 31q-2 59 -45 72q-12 2 -55 10q-2 2 0 14t4 15q74 -4 162 -5q70 0 186 7q2 -4 2 -15.5t-2 -15.5q-53 -8 -71 -14q-35 -10 -35 -66q-4 -90 -3 -302t5 -282q4 -39 31 -51q25 -10 100 -20q2 -4 2 -17.5t-4 -15.5q-2 0 -83 4t-128 2 q-121 -4 -139 -6q-4 4 -4 14t2 15q49 16 64.5 29.5t15.5 45.5v482q0 2 -2.5 4t-6.5 0q-27 -35 -350 -404q-10 -10 -10 -37q2 -57 8 -74.5t27 -25.5q41 -12 86 -16q2 -2 0 -16.5t-4 -16.5q-4 0 -73 3t-124 3q-39 0 -104.5 -3t-75.5 -3q-2 2 -2 16.5z" />
<glyph unicode="&#x439;" horiz-adv-x="956" d="M33 10.5q0 14.5 2 16.5q61 10 69 12q29 8 37.5 31.5t8.5 87.5q0 45 1 142t1 146q0 92 -5 244q-2 49 -45 60q-29 6 -63 10q-4 23 4 33q2 0 59.5 -3.5t112.5 -3.5q39 0 81 2.5t69.5 3.5t31.5 1q4 -6 5 -17.5t-3 -13.5q-25 -2 -63 -12q-41 -10 -43 -76v-418q0 -14 8 -6 q43 43 176 194.5t172 204.5q10 14 10 31q-2 59 -45 72q-12 2 -55 10q-2 2 0 14t4 15q74 -4 162 -5q70 0 186 7q2 -4 2 -15.5t-2 -15.5q-53 -8 -71 -14q-35 -10 -35 -66q-4 -90 -3 -302t5 -282q4 -39 31 -51q25 -10 100 -20q2 -4 2 -17.5t-4 -15.5q-2 0 -83 4t-128 2 q-121 -4 -139 -6q-4 4 -4 14t2 15q49 16 64.5 29.5t15.5 45.5v482q0 2 -2.5 4t-6.5 0q-27 -35 -350 -404q-10 -10 -10 -37q2 -57 8 -74.5t27 -25.5q41 -12 86 -16q2 -2 0 -16.5t-4 -16.5q-4 0 -73 3t-124 3q-39 0 -104.5 -3t-75.5 -3q-2 2 -2 16.5zM266 1079q0 14 17.5 35 t38.5 33q14 0 14 -4q25 -117 162 -117q113 0 176 98q4 4 17.5 13.5t17.5 9.5q8 0 8 -8q-27 -82 -97.5 -138.5t-166.5 -56.5q-74 0 -130.5 38t-56.5 97z" />
<glyph unicode="&#x43a;" horiz-adv-x="831" d="M32 12.5q-1 12.5 3 14.5q47 4 69 10q41 10 43 53q4 27 5 322q0 209 -5 278q-2 49 -45 60q-29 6 -63 10q-4 23 4 33q2 0 59.5 -3.5t112.5 -3.5q39 0 81 2.5t69.5 3.5t31.5 1q4 -6 5 -17.5t-3 -13.5q-25 -2 -63 -12q-41 -10 -43 -58l-2 -278q104 2 147 51q37 43 72 129 q39 96 79 147.5t63.5 60.5t58 9t53.5 -27q6 -33 -23 -118q-6 -10 -14 -7q-47 27 -86 27q-41 0 -92 -111q-49 -111 -96 -153q53 -18 86 -66q18 -25 82.5 -120t95.5 -136q35 -45 59.5 -57t91.5 -16q2 -2 2 -16.5t-4 -16.5q-49 -6 -157 -6q-84 0 -134 57q-20 27 -155 246 q-55 88 -129 90q0 -168 4 -283q2 -47 47 -59q37 -10 70 -12q4 -23 -4 -33q-10 0 -90 3t-95 3q-43 0 -113.5 -3t-72.5 -3q-4 6 -5 18.5z" />
<glyph unicode="&#x43b;" horiz-adv-x="790" d="M-41 11.5q0 13.5 2 15.5q70 10 96.5 29.5t51.5 72.5q113 254 202 537q10 27 -6 63q-4 8 2 14q6 8 51 38t54 30q6 0 10 -8q174 -483 254 -658q37 -72 57.5 -88t97.5 -30q2 -4 1 -16.5t-3 -16.5q-172 6 -188 6q-45 0 -162 -6q-4 4 -4 16.5t2 16.5q45 8 55 14q16 12 7 37 q-51 166 -195 516q-2 6 -8 0l-21 -62q-23 -59 -47 -128.5t-49.5 -146.5t-36.5 -114q-16 -55 -9 -74.5t40 -29.5l70 -12q2 -2 0 -16.5t-4 -16.5q-16 0 -82 3t-95 3q-31 0 -76.5 -3t-62.5 -3q-4 4 -4 17.5z" />
<glyph unicode="&#x43c;" horiz-adv-x="1077" d="M12 -6q-8 20 0 33q76 12 95.5 30.5t23.5 69.5q12 190 19 561q-4 49 -48 62q-29 6 -63 10q-4 23 4 33q4 0 61.5 -3.5t96.5 -3.5q31 0 73 7q2 -10 29 -74q178 -371 244 -486q4 -4 8 0q47 90 143.5 305.5t104.5 249.5q27 -2 82 -2q27 0 85 3.5t68 3.5q4 -4 4 -16.5t-4 -16.5 q-43 -6 -73 -17q-8 -2 -11.5 -3t-9.5 -5t-9 -8t-5 -13t-2 -20q-2 -72 -1 -270.5t5 -308.5q0 -63 57 -76l64 -12q4 -2 2 -15.5t-6 -17.5q-8 0 -76 4t-107 2q-150 -4 -182 -6q-6 4 -6 16.5t4 16.5q63 10 82.5 21t21.5 42q2 37 3.5 138.5t0 201.5t1.5 193q0 2 -3.5 2t-3.5 -2 q-23 -49 -127 -285t-143 -330q-8 -8 -31 -8q-76 193 -280 623q-2 4 -6 3t-4 -5q0 -428 4 -498t59 -82q18 -4 72 -14q2 -4 2 -16.5t-4 -16.5q-18 0 -73.5 3t-96.5 3q-31 0 -82.5 -3t-61.5 -3z" />
<glyph unicode="&#x43d;" horiz-adv-x="952" d="M32 11.5q-1 13.5 3 15.5q31 4 63 12q29 8 38 23.5t11 54.5q4 84 5 299q0 197 -5 272q-4 51 -45 60q-10 2 -63 12q-4 23 4 33q2 0 59.5 -3.5t112.5 -3.5q39 0 81 2.5t69.5 3.5t31.5 1q4 -6 5 -18.5t-3 -14.5q-25 -2 -63 -12q-41 -10 -41 -56v-243q0 -8 10 -9h168h180 q8 0 9 9q0 23 -1.5 78t-2.5 107t-1 56q0 45 -47 60q-6 2 -30.5 6t-30.5 6q-2 2 -1 15.5t5 15.5q10 0 73.5 -3.5t108.5 -3.5q70 0 174 7q4 -2 4 -16.5t-4 -14.5l-37 -6q-37 -6 -51 -21.5t-16 -52.5q-2 -47 -2 -272q0 -61 1 -172t1 -127q0 -59 61 -74q27 -6 64 -10 q2 -2 2 -17.5t-4 -15.5q-27 0 -88.5 3t-98.5 3q-41 0 -115.5 -3t-76.5 -3q-4 4 -5 16.5t3 16.5q37 4 76 14t39 68v266q0 6 -7 6h-354q-6 0 -6 -10q0 -170 2 -252q2 -66 43 -78q23 -8 76 -14q4 -4 3 -15.5t-7 -17.5q-6 0 -75 3t-110 3q-33 0 -105.5 -3t-84.5 -3q-4 4 -5 17.5 z" />
<glyph unicode="&#x43e;" horiz-adv-x="946" d="M74 401q0 215 174 332q113 78 254 78q174 0 273 -112.5t99 -286.5q0 -113 -48 -210.5t-138 -154.5q-104 -72 -223 -72q-137 0 -228.5 65.5t-127 157.5t-35.5 203zM231 449q0 -182 79 -299t204 -117q78 0 125 45q78 80 78 270q0 178 -75 293t-206 115q-66 0 -102 -31 q-103 -69 -103 -276z" />
<glyph unicode="&#x43f;" horiz-adv-x="954" d="M32 11.5q-1 13.5 3 15.5q49 6 71 12q27 10 33 24.5t8 53.5q4 84 5 299q0 229 -5 278q-2 43 -45 56q-29 6 -63 10q-4 23 4 33q2 0 59.5 -3.5t112.5 -3.5h520q63 0 183 7q2 -4 2 -16.5t-2 -14.5l-33 -4q-39 -6 -58.5 -20.5t-21.5 -55.5q-2 -47 -2 -272q0 -61 1 -172t1 -127 q0 -35 14.5 -50.5t44.5 -21.5q16 -4 66 -12q4 -4 4 -14.5t-6 -18.5q-25 0 -86.5 3t-106.5 3q-133 0 -182 -6q-4 4 -5 16.5t3 16.5q35 4 57 10q29 8 40 24.5t11 67.5q0 37 1.5 143.5t1.5 128.5q0 238 -5 318q0 16 -12 16h-332q-14 0 -16 -24q-2 -18 -2 -291v-301 q0 -63 45 -78q23 -8 76 -14q12 -18 -2 -33q-6 0 -77 3t-112 3q-33 0 -104.5 -3t-83.5 -3q-4 4 -5 17.5z" />
<glyph unicode="&#x440;" horiz-adv-x="937" d="M4 -539.5q0 13.5 4 17.5q63 16 82 22q45 18 47 90q4 82 4 537q0 440 -4 485q-4 51 -24 66q-25 18 -90 24q-4 2 -2 15.5t6 15.5q55 10 130.5 41t116.5 62q2 2 8.5 -4.5t4.5 -10.5q-4 -41 -4 -137q0 -2 8 -2q186 129 289 129q115 0 194 -90q90 -102 90 -258 q0 -223 -172 -365q-68 -55 -160 -89t-163 -34q-33 0 -82 15q-6 -4 -6 -10q0 -274 6 -388q2 -43 14 -58t49 -21q12 -2 101 -11q4 -4 2 -18t-7 -16h-94q-76 0 -144.5 -5.5t-123.5 -11.5t-76 -8q-4 4 -4 17.5zM279 409.5q0 -163.5 2 -202.5q2 -82 51 -117q51 -39 145 -39 q82 0 150 58q92 82 92 272q0 158 -74 248q-70 82 -174 82q-88 0 -166 -62q-25 -14 -24 -43q-2 -33 -2 -196.5z" />
<glyph unicode="&#x441;" horiz-adv-x="772" d="M72 377q0 238 196 352q137 82 258 82q92 0 150 -25q49 -25 59 -51q0 -18 -4 -24q-27 -55 -61 -72q-10 -4 -19 0q-100 106 -215 106q-104 0 -162.5 -83.5t-58.5 -200.5q0 -168 76 -260q84 -111 231 -111q131 0 219 94q6 0 7 -6q0 -31 -7 -39q-135 -164 -317 -164 q-174 0 -272 134q-80 108 -80 268z" />
<glyph unicode="&#x442;" horiz-adv-x="778" d="M23 549q16 94 26 250q0 2 4 5t6 1q35 -20 113 -21h444q86 0 134 17l6 -4q-25 -96 -33 -248q-4 -4 -16.5 -4t-14.5 4q-12 92 -30 137q-20 39 -54 45q-84 6 -149 2q-6 -4 -6 -12q0 -543 4 -619q4 -49 47 -63q29 -8 86 -12q2 -4 2 -16.5t-4 -16.5q-25 0 -108 3t-113 3 q-41 0 -109 -4t-92 -2q-2 2 -2 16.5t2 16.5q47 2 82 10q33 6 44 27.5t13 74.5q4 63 4 586q0 10 -10 10q-55 4 -117 0q-39 -4 -57 -37q-20 -29 -72 -155q-4 -2 -16 1t-14 5z" />
<glyph unicode="&#x443;" horiz-adv-x="806" d="M-19 774q1 12 5 14q6 0 61 -3t121 -3q49 0 111.5 3t66.5 3q4 -4 4 -15t-2 -15q-55 -12 -67 -17q-20 -10 -15 -30q14 -51 98.5 -273.5t100.5 -255.5h4q147 328 174 496q8 49 -39 63l-82 17q-2 4 -1 16t5 14q8 0 68.5 -3t97.5 -3q10 0 158 6q4 -2 4 -14t-4 -16 q-51 -10 -64 -17q-47 -16 -73 -84q-219 -598 -492 -1089l-71 -115l-11 -4q-57 14 -78 49q-6 12 -2 21q223 279 320 487q-12 29 -17 37q-106 289 -200 520q-41 102 -60.5 135t-52.5 43q-29 10 -67 17q-2 4 -1 16z" />
<glyph unicode="&#x444;" horiz-adv-x="1114" d="M74 414q0 102 43 179t112.5 119t130 63.5t121.5 31.5q8 0 8 14q0 268 -4 299q-2 20 -8 29.5t-29.5 19t-72.5 15.5q-2 4 -1 15t5 13q145 14 252 56q6 -6 6 -13q-6 -25 -10 -458q20 6 82 6q143 -20 238 -122.5t95 -270.5q0 -240 -186 -361q-88 -59 -225 -82q-8 0 -8 -10 q0 -338 2 -352q2 -47 20.5 -64.5t52.5 -23.5l86 -13q4 -2 1 -17t-7 -17q-29 0 -66.5 -1t-68.5 -1q-121 0 -285 -17q-4 4 -4 18.5t4 16.5l64 16q29 6 41 22.5t16 63.5q4 51 8 379q-180 8 -296.5 122t-116.5 325zM233 451q0 -172 73 -280t181 -138q2 369 2 710q0 2 -5 7.5 t-7 5.5q-92 2 -168 -72.5t-76 -232.5zM623 743l2 -714q2 -6 6 -6q37 0 73.5 12t79.5 45t71 107.5t28 181.5q0 154 -65.5 257t-182.5 126q-8 -1 -12 -9z" />
<glyph unicode="&#x445;" horiz-adv-x="751" d="M-37 9.5q0 13.5 2 17.5q86 12 117 31.5t78 80.5q33 45 157 228v12l-141 248q-51 84 -78.5 102.5t-109.5 26.5q-2 4 -1 17t5 15q14 0 76.5 -3t124.5 -3q51 0 108 3t61 3q2 -2 3.5 -15t-0.5 -17q-53 -10 -62 -13q-23 -8 -12 -32q27 -63 121 -222q4 -8 8 0q92 129 123 203 q16 35 -19 47q-27 10 -75 17q-4 4 -4.5 16t4.5 16q14 0 74.5 -3t76.5 -3q78 0 164 6q4 -2 5 -15t-3 -17q-80 -14 -109.5 -31.5t-72.5 -81.5q-29 -39 -133 -194q-4 -6 -2 -15q100 -178 135 -237q68 -113 101.5 -137.5t115.5 -32.5q2 -4 2 -16.5t-4 -16.5q-6 0 -78 3t-125 3 q-51 0 -113.5 -3t-74.5 -3q-8 23 0 33q53 10 67 16q20 10 10 33q-29 70 -135 243q-4 8 -8 0q-113 -168 -135 -223q-18 -37 16 -51q39 -12 92 -18q2 -4 0 -17.5t-4 -15.5q-6 0 -77.5 4t-104.5 2l-164 -6q-2 2 -2 15.5z" />
<glyph unicode="&#x446;" horiz-adv-x="950" d="M32 11.5q-1 13.5 3 15.5q59 8 69 12q18 6 27.5 16.5t11.5 22.5t4 39q4 84 5 299q0 121 -5 272q-4 51 -45 60q-10 2 -63 12q-4 23 4 33q2 0 60.5 -3.5t113.5 -3.5q39 0 80 2.5t68.5 3.5t31.5 1q4 -6 5 -18.5t-3 -14.5q-25 -2 -63 -12q-39 -8 -41 -76q0 -16 -1 -133 t-1 -146q0 -266 4 -315q0 -20 22 -25q47 -2 173 -3t157 1q10 0 10 10q2 27 3 336q0 39 -1.5 163t-1.5 130q-4 45 -49 60q-6 2 -30.5 6t-30.5 6q-2 4 -2 16.5t4 14.5q10 0 69.5 -3.5t104.5 -3.5q66 0 184 7q4 -4 4 -15.5t-4 -15.5l-35 -4q-70 -10 -71 -76q-2 -49 -2 -272 q0 -240 4 -338q0 -12 10 -13q37 0 98 4q6 -2 7 -8q-41 -106 -74 -325q-2 -4 -18.5 -5t-18.5 3q-10 195 -35 245q-12 27 -39 27h-510q-33 0 -104.5 -3t-83.5 -3q-4 4 -5 17.5z" />
<glyph unicode="&#x447;" horiz-adv-x="831" d="M-4 760q-4 23 4 33q2 0 59.5 -3.5t112.5 -3.5q39 0 75 2.5t58.5 3.5t26.5 1q4 -6 5 -18.5t-3 -14.5q-55 -8 -69.5 -17.5t-16.5 -42.5v-172q12 -137 174 -137q70 0 123 25v132q0 112 -4 148q0 41 -45 54q-6 2 -31 6t-31 6q-2 4 -2 16.5t4 14.5q10 0 73.5 -3.5t108.5 -3.5 q53 0 173 7q2 -4 2 -16.5t-2 -14.5l-33 -4q-27 -4 -39 -9.5t-22.5 -21.5t-12.5 -45q-2 -47 -2 -270q0 -59 1 -170t1 -129q2 -37 13.5 -52.5t39.5 -21.5q37 -8 72 -12q4 -2 3 -16.5t-5 -16.5q-8 0 -75.5 3t-125.5 3q-37 0 -106.5 -3t-77.5 -3q-4 4 -5 15t3 16q8 2 21.5 4 t27.5 4t31 6q37 10 41 63q6 96 4 279q-113 -59 -223 -59q-104 0 -158 45q-57 51 -60 149q-2 37 -2 172q-4 51 -45 60q-16 4 -61 12z" />
<glyph unicode="&#x448;" horiz-adv-x="1288" d="M32 11.5q-1 13.5 3 15.5q57 8 67 10q29 6 36 22.5t9 57.5q4 84 5 299q0 197 -5 272q-4 51 -45 60q-10 2 -63 12q-4 23 4 33q2 0 59.5 -3.5t112.5 -3.5q39 0 80 2.5t68.5 3.5t31.5 1q4 -6 4 -17.5t-4 -15.5q-16 -2 -59 -12q-41 -10 -41 -70v-285q0 -276 4 -315 q0 -20 23 -25h239q10 0 10 10q6 68 7 343v99q0 69 -1.5 126t-1.5 59q-2 33 -11 43t-32 17q-6 2 -32.5 6t-32.5 6q-2 2 -1 15.5t5 15.5q10 0 72.5 -3.5t107.5 -3.5q72 0 170 7q2 -2 2 -15.5t-2 -15.5l-37 -6q-23 -4 -34 -9.5t-21 -20.5t-10 -44q-2 -47 -2 -272q0 -291 4 -347 q0 -12 10 -12h250q10 0 10 10q4 90 4 336v166l-2 125q-2 33 -11 44t-34 20q-6 2 -29.5 5t-31.5 5q-2 2 -1 15.5t5 15.5q10 0 71.5 -3.5t106.5 -3.5q53 0 174 7q2 -2 2 -15.5t-2 -15.5l-33 -6q-29 -4 -40 -9.5t-21 -20.5t-12 -44q-2 -47 -2 -272q0 -61 1 -176t1 -121 q4 -61 63 -76q27 -6 66 -10q2 -4 1 -17.5t-5 -15.5q-27 0 -96.5 3t-106.5 3h-834q-33 0 -104.5 -3t-83.5 -3q-4 4 -5 17.5z" />
<glyph unicode="&#x449;" horiz-adv-x="1288" d="M32 11.5q-1 13.5 3 15.5q57 8 67 10q29 6 36 22.5t9 57.5q4 84 5 299q0 197 -5 272q-4 51 -45 60q-10 2 -63 12q-4 23 4 33q2 0 59.5 -3.5t112.5 -3.5q39 0 80 2.5t68.5 3.5t31.5 1q4 -6 4 -17.5t-4 -15.5q-20 -2 -61 -12q-39 -8 -39 -70v-285q0 -276 4 -315 q0 -20 23 -25h239q10 0 10 10q6 68 7 343v99q0 69 -1.5 126t-1.5 59q-2 33 -11 43t-32 17q-6 2 -32.5 6t-32.5 6q-2 2 -1 15.5t5 15.5q10 0 72.5 -3.5t107.5 -3.5q72 0 170 7q2 -2 2 -15.5t-2 -15.5l-37 -6q-23 -4 -34 -9.5t-21 -20.5t-10 -44q-2 -47 -2 -272q0 -291 4 -347 q0 -12 10 -12h250q10 0 10 10q4 90 4 336v166l-2 125q-2 33 -11 44t-34 20q-6 2 -29.5 5t-31.5 5q-2 2 -1 15.5t5 15.5q10 0 71.5 -3.5t106.5 -3.5q102 0 174 7q4 -2 4 -15.5t-4 -15.5l-33 -6q-45 -10 -58 -21.5t-15 -52.5q-2 -47 -2 -272q0 -297 4 -338q0 -12 10 -13 q37 0 98 4q4 0 4 -10q-41 -117 -67 -323q-2 -4 -17.5 -5t-17.5 3q-10 205 -33 249q-10 23 -35 23h-856q-33 0 -104.5 -3t-83.5 -3q-4 4 -5 17.5z" />
<glyph unicode="&#x44a;" horiz-adv-x="884" d="M27 553q16 72 26 231q0 8 8 9q57 -12 125 -13l185 2q59 0 178 6q2 -2 2 -15t-2 -15l-37 -4q-43 -8 -60.5 -26.5t-17.5 -65.5v-183q74 4 131 4q111 0 187.5 -53t76.5 -172q0 -70 -33.5 -130t-93.5 -93q-90 -47 -253 -45q-76 0 -273 4q-2 4 -2 16.5t2 16.5q2 0 28.5 4 t41.5 8q45 12 49 86q2 74 2 324q0 53 -1 144t-1 99q-2 41 -21 43q-39 4 -77 0q-43 -2 -68 -37q-29 -41 -70 -153q-4 -4 -17 0t-15 8zM432 440q0 -293 6 -350q2 -27 36 -43t63 -16q76 0 113.5 55t37.5 143q0 106 -68.5 159.5t-187.5 51.5z" />
<glyph unicode="&#x44b;" horiz-adv-x="1116" d="M32 10.5q-1 12.5 1 16.5q53 8 71 12q43 10 48 86q4 170 2 319q0 186 -4 248q-2 47 -48 56q-10 2 -63 12q-4 23 4 33q2 0 59.5 -3.5t112.5 -3.5q39 0 81 2.5t69.5 3.5t31.5 1q4 -6 5 -18.5t-3 -14.5q-25 -2 -63 -12q-41 -10 -41 -56l-2 -200q61 6 139 6q111 0 189.5 -58.5 t78.5 -177.5q0 -154 -129 -227q-86 -47 -260 -45q-80 0 -276 4q-2 4 -3 16.5zM291 451q0 -303 6 -361q2 -27 33.5 -44t58.5 -17q70 0 119 58t49 146q0 111 -71.5 166.5t-194.5 51.5zM710 10.5q-1 12.5 3 16.5q35 4 75 14q33 8 35 68q4 78 4 292q0 23 -1 90.5t-2 131t-1 67.5 q0 45 -47 60q-6 2 -30.5 6t-30.5 6q-2 2 -1 15.5t5 15.5q10 0 73.5 -3.5t108.5 -3.5q70 0 174 7q2 -2 2 -16.5t-2 -14.5l-37 -6q-37 -6 -51 -21.5t-16 -52.5q-2 -47 -2 -272q0 -61 1 -172t1 -127q0 -59 61 -74q27 -6 64 -10q4 -2 3 -17.5t-5 -15.5q-27 0 -88.5 3t-98.5 3 q-41 0 -115.5 -3t-76.5 -3q-4 4 -5 16.5z" />
<glyph unicode="&#x44c;" horiz-adv-x="778" d="M32 10.5q-1 12.5 1 16.5q53 8 71 12q43 10 48 86q4 166 2 303q0 238 -4 268q-2 43 -48 52q-10 2 -63 12q-4 23 4 33q2 0 59.5 -3.5t112.5 -3.5q39 0 81 2.5t69.5 3.5t31.5 1q4 -6 5 -18.5t-3 -14.5q-25 -2 -63 -12q-16 -4 -23.5 -8.5t-13.5 -18.5t-6 -39v-188q61 6 153 6 q117 0 196 -58.5t79 -181.5q0 -152 -135 -225q-90 -47 -275 -45q-80 0 -276 4q-2 4 -3 16.5zM291 453q0 -303 6 -361q2 -27 40 -44t66 -17q78 0 125 56t47 146q1 226 -284 220z" />
<glyph unicode="&#x44d;" horiz-adv-x="790" d="M41 215q2 4 13.5 10t13.5 4q88 -203 274 -202q111 0 167 101t52 249q-111 -12 -276 -12q-72 0 -82 6q-6 6 0 14l57 55q78 -23 270 -22h31q-6 152 -78.5 243t-189.5 91q-63 0 -107 -27q-47 -27 -100 -150q-4 -2 -11 0.5t-13.5 5.5t-6.5 7q23 119 45 166q111 57 262 57 q176 0 266.5 -116.5t90.5 -282.5q0 -209 -131 -330q-109 -102 -291 -102q-125 0 -197 40q-43 52 -59 195z" />
<glyph unicode="&#x44e;" horiz-adv-x="1294" d="M30 10.5q-1 14.5 1 16.5q57 4 84 16q31 12 32 84q4 49 5 330q0 176 -5 231q-4 51 -45 60q-10 2 -63 12q-4 23 4 33q2 0 59.5 -3.5t112.5 -3.5q39 0 81 2.5t69.5 3.5t31.5 1q4 -6 5 -18.5t-3 -14.5q-27 -2 -57 -10q-33 -8 -41 -20.5t-8 -49.5v-231q2 -8 12 -11 q104 -4 162 -2q12 199 160 303q104 72 241 72q164 0 257.5 -115.5t93.5 -289.5q0 -260 -179 -373q-86 -57 -211 -58q-180 0 -270 115t-94 295q-29 -4 -82 -4h-90q0 -199 2 -266q0 -57 43 -74q35 -10 80 -14q4 -4 2 -18.5t-6 -16.5q-18 0 -88 4t-105 4q-49 0 -113.5 -3 t-74.5 -3q-2 2 -3 16.5zM614 432q0 -195 68 -303.5t182 -108.5q57 0 97 30t60.5 82t30 108.5t9.5 121.5q0 190 -60.5 297t-181.5 107q-96 0 -150.5 -92t-54.5 -242z" />
<glyph unicode="&#x44f;" horiz-adv-x="827" d="M-35 5q0 13 4 15q57 4 91 30t87 91q59 78 89 113q63 72 102 90q8 4 0 8q-90 14 -147.5 69.5t-57.5 141.5q0 141 150 199q78 31 274 31q33 0 71 -1t83 -3.5t73 -2.5q4 -2 0 -14t-8 -16l-80 -13q-18 -2 -18 -24q-2 -49 -2 -309q0 -262 2 -304q2 -29 11 -43t42 -24 q37 -8 76 -12q4 -2 2 -16.5t-6 -16.5q-33 0 -90.5 3t-91.5 3q-31 0 -63 -1t-68.5 -3t-61.5 -2q-4 4 -5 17.5t3 15.5q53 8 63 10q45 12 46 67q4 172 4 250q-45 -4 -73 -20.5t-63 -63.5q-152 -213 -172 -233q-57 -49 -200 -49q-45 0 -62 2q-4 2 -4 15zM276 586 q0 -94 72 -143.5t191 -51.5q0 31 -1 157t-3 163q0 25 -15 28q-20 4 -63 4q-88 0 -134.5 -41.5t-46.5 -115.5z" />
<glyph unicode="&#x450;" horiz-adv-x="790" d="M72 387q0 248 176 358q41 27 104.5 46.5t104.5 19.5q88 0 150.5 -52t86 -108.5t33.5 -118.5q4 -14 25 -16q6 -20 -9 -27q-109 -37 -522 -47q-12 0 -12 -22q4 -137 76 -225q84 -104 225 -105q133 0 223 86q8 0 8 -6q4 -18 -4 -35q-147 -160 -319 -160q-152 0 -240 99 q-106 114 -106 313zM215 506q0 -12 6 -12q45 -4 180.5 1t165.5 13q12 6 13 16q-10 92 -58.5 163t-130.5 71q-72 0 -121 -66.5t-55 -185.5zM241 1190q1 4 3 8q12 4 57 8t64 0q31 -70 112 -309q-2 -4 -12 -9t-14 -3q-92 117 -209 301q-2 0 -1 4z" />
<glyph unicode="&#x451;" horiz-adv-x="790" d="M72 387q0 248 176 358q41 27 104.5 46.5t104.5 19.5q88 0 150.5 -52t86 -108.5t33.5 -118.5q4 -14 25 -16q6 -20 -9 -27q-109 -37 -522 -47q-12 0 -12 -22q4 -137 76 -225q84 -104 225 -105q133 0 223 86q8 0 8 -6q4 -18 -4 -35q-147 -160 -319 -160q-152 0 -240 99 q-106 114 -106 313zM213 1085q0 31 8 48q29 29 76 28q37 0 49 -18q14 -14 14 -43q0 -57 -38 -76q-8 -4 -34 -6t-34 2q-41 16 -41 65zM215 506q0 -12 6 -12q45 -4 180.5 1t165.5 13q12 6 13 16q-10 92 -58.5 163t-130.5 71q-72 0 -121 -66.5t-55 -185.5zM516 1085q0 31 8 48 q29 29 76 28q37 0 49 -18q14 -14 15 -43q0 -57 -39 -76q-8 -4 -34 -6t-34 2q-41 16 -41 65z" />
<glyph unicode="&#x452;" horiz-adv-x="911" d="M16 1329q0 10 2 12q152 12 275 68q12 -6 6 -16q-14 -27 -16 -168l-2 -131q0 -6 6 -7q49 0 100 1.5t84 1.5h37q0 -33 -8 -58q-14 0 -89 1t-126 1q-4 0 -4 -6q0 -76 1 -191.5t1 -125.5q0 -6 6 -2q125 102 243 102q131 0 203 -128t72 -331q0 -158 -34 -296t-84 -225 t-106.5 -150.5t-100.5 -90t-68 -26.5q-23 0 -48.5 11t-31.5 19q-4 14 0 19h8q61 0 113.5 26.5t100.5 93t75.5 198.5t27.5 321q0 467 -229 467q-74 0 -131 -45q-16 -14 -16 -41q0 -449 4 -504q4 -47 14 -64.5t39 -25.5q20 -6 72 -12q2 -4 2 -16.5t-2 -16.5q-10 0 -88 3 t-121 3q-33 0 -95.5 -3t-80.5 -3q-2 4 -2 16.5t2 16.5q41 6 67 14q39 12 43 92q4 49 4 352l-2 545h-121q6 51 13 57q6 0 47 -1t61 -1l-2 162q-2 47 -43 56q-4 2 -76 12q-2 4 -2 14z" />
<glyph unicode="&#x453;" horiz-adv-x="681" d="M20 9.5q0 13.5 3 17.5q49 4 75 14q20 8 26.5 23.5t8.5 62.5q4 49 4 274v275q-4 51 -22 63q-20 12 -84 25q-2 2 -2 15.5t4 13.5q6 0 66.5 -3.5t105.5 -3.5h297q76 0 143 7q6 0 6 -9q-18 -66 -37 -237q-4 -4 -15 -4t-15 2q-12 90 -33 141q-14 41 -57 45q-20 2 -99.5 3 t-95.5 -1q-14 0 -14 -20q-4 -80 -4 -297q0 -209 4 -303q2 -57 45 -72q27 -8 90 -14q4 -6 1 -18.5t-7 -14.5q-18 0 -96 3t-113 3q-49 0 -110.5 -3t-71.5 -3q-3 2 -3 15.5zM315 897q90 215 129 289q16 6 64.5 10t58.5 0q2 -2 4 -7t0 -7q-39 -61 -231 -301q-17 0 -25 16z" />
<glyph unicode="&#x454;" horiz-adv-x="776" d="M72 375q0 246 194 364q123 72 248 72q94 0 156 -31q41 -20 57 -55q4 -12 0 -27q-8 -16 -27.5 -37.5t-31.5 -29.5q-8 -4 -19 0q-47 63 -92 94t-123 31q-104 0 -160.5 -88t-56.5 -222q0 -8 6 -8q82 -4 162 -4q176 0 231 23q8 -4 9 -19q-10 -18 -47 -40.5t-68 -24.5 q-68 0 -175.5 7t-109.5 7q-6 0 -6 -10q8 -137 86 -216t207 -79q131 0 221 106q14 -4 15 -28q-137 -184 -326 -185q-158 0 -254 112t-96 288z" />
<glyph unicode="&#x455;" horiz-adv-x="655" d="M66 227q2 4 14 7.5t18 1.5q31 -150 125 -197q43 -23 92 -23q61 0 101.5 35t40.5 90.5t-32 93t-116 84.5q-125 66 -171 124.5t-46 138.5q0 96 74 162.5t205 66.5q61 0 116 -10q53 -8 74 -8q-16 -72 -22 -199q-2 -4 -16.5 -5t-16.5 3q-14 133 -74 160q-41 20 -90 20 q-53 0 -90 -32.5t-37 -92.5q0 -57 33 -97t139 -93q119 -61 161 -113.5t42 -126.5q0 -104 -85 -173t-212 -69q-111 0 -203 39q-24 90 -24 213z" />
<glyph unicode="&#x456;" horiz-adv-x="436" d="M29 10.5q0 14.5 2 16.5q55 4 80 16q35 14 36 84q4 51 5 328q0 152 -2 186q0 25 -13 41q-16 20 -82 39q-2 4 -2 16.5t2 14.5q150 16 244 61q-4 -111 -4 -346q0 -256 2 -354q0 -55 43 -72q33 -10 76 -14q0 -31 -6 -33q-18 0 -86 3t-103 3q-49 0 -114.5 -3t-75.5 -3 q-2 2 -2 16.5zM135 1087q-4 29 10 50q27 31 82 30q37 0 56 -18q16 -16 16 -47q0 -61 -43 -82q-8 -6 -37 -9t-41 3q-43 16 -43 73z" />
<glyph unicode="&#x457;" horiz-adv-x="436" d="M-8 1085q0 31 8 48q29 29 76 28q37 0 49 -18q14 -14 14 -43q0 -57 -39 -76q-8 -4 -33.5 -6t-33.5 2q-41 16 -41 65zM29 10.5q0 14.5 2 16.5q55 4 80 16q35 14 36 84q4 51 5 328q0 152 -2 186q0 25 -13 41q-16 20 -82 39q-2 4 -2 16.5t2 14.5q150 16 244 61 q-4 -111 -4 -346q0 -256 2 -354q0 -55 43 -72q35 -10 74 -14q0 -31 -6 -33q-18 0 -85 3t-102 3q-49 0 -114.5 -3t-75.5 -3q-2 2 -2 16.5zM295 1085q0 31 8 48q29 29 76 28q37 0 49 -18q14 -14 14 -43q0 -57 -39 -76q-8 -4 -33.5 -6t-33.5 2q-41 16 -41 65z" />
<glyph unicode="&#x458;" horiz-adv-x="434" d="M-33 -550q0 3 2 5q102 74 143.5 184.5t41.5 325.5q0 641 -4 672q-4 43 -35 59q-29 14 -84 21q-2 6 -2 18.5t2 16.5q162 8 276 61q-8 -182 -8 -717q-6 -133 -12 -192q-20 -158 -109.5 -289t-177.5 -184q-20 0 -31 14q-2 2 -2 5zM137 1098q0 35 8 45q35 35 91 35 q39 0 51 -17q12 -12 12 -41q0 -55 -31 -86q-6 -6 -38.5 -12t-41.5 -2q-49 21 -51 78z" />
<glyph unicode="&#x459;" horiz-adv-x="1089" d="M-41 11.5q0 13.5 2 15.5q72 10 98.5 29.5t49.5 72.5q43 100 114.5 287.5t85.5 242.5q12 33 -4 70q-4 8 2 14q6 8 50 38t53 30q6 0 14 -18q104 -291 135 -357q94 20 211 21q121 0 192.5 -58.5t71.5 -169.5q0 -109 -88 -176t-244 -63q-90 0 -229 4q-4 4 -4 15t2 16 q49 8 63.5 16t8.5 31q-23 70 -99.5 274.5t-97.5 251.5q-4 10 -8 0q-59 -147 -156 -455q-16 -55 -9 -74.5t40 -29.5l72 -12q2 -2 0 -16.5t-4 -16.5q-14 0 -82 3t-97 3q-31 0 -76.5 -3t-62.5 -3q-4 4 -4 17.5zM571 395q115 -293 121 -305q27 -61 70 -61q53 0 89 46t36 118 q0 102 -59.5 156t-161.5 54q-56 0 -95 -8z" />
<glyph unicode="&#x45a;" horiz-adv-x="1212" d="M32 10.5q-1 12.5 3 14.5l67 12q27 8 35 24.5t10 55.5q4 84 5 299q0 229 -2.5 276t-47.5 56q-10 2 -63 12q-4 23 4 33q2 0 59.5 -3.5t112.5 -3.5q39 0 80 2.5t67.5 3.5t30.5 1q4 -6 5 -18.5t-3 -14.5q-25 -4 -59 -12q-41 -10 -41 -70l-2 -223q0 -8 10 -9h146q109 0 153 3 q10 0 10 8q0 211 -4 239q-2 27 -8 36t-29 18q-6 2 -32.5 6t-32.5 6q-2 2 -1 14t5 15q10 0 73.5 -2.5t108.5 -2.5q49 0 170 7q2 -2 2 -16.5t-2 -14.5l-41 -6q-66 -6 -67 -74q-2 -47 -2 -225q0 -10 6 -11q41 4 155 5q109 0 176.5 -54.5t67.5 -165.5q0 -131 -125 -200 q-82 -45 -250 -41q-180 0 -278 2q-2 4 -2 14t2 14q6 2 27.5 5.5t33.5 7.5q18 4 28.5 19.5t12.5 28.5t4 42q4 150 2 274q-16 -4 -157 -4h-152q-10 0 -10 -10q0 -45 1 -131t1 -131q0 -68 45 -80q20 -8 72 -14q4 -4 3 -15.5t-7 -17.5q-6 0 -73 3t-108 3q-33 0 -105.5 -3 t-84.5 -3q-4 4 -5 16.5zM752 395q0 -246 6 -301q2 -27 36.5 -45t61.5 -18q72 0 113 45t41 127q0 199 -199 198h-53q-6 0 -6 -6z" />
<glyph unicode="&#x45b;" horiz-adv-x="948" d="M9 1328q1 11 5 15q145 8 279 66q8 -4 8 -16q-16 -33 -18 -172l-2 -140q35 0 132 1t99 1q0 -25 -8 -49h-223l2 -346q0 -6 8 -2q162 125 280 125q113 0 174.5 -83t61.5 -236q0 -303 2 -394q0 -29 14 -41q27 -23 105 -30q2 -6 0 -18.5t-6 -14.5q-16 0 -80 3t-115 3 q-96 0 -182 -6q-4 2 -4 15.5t4 17.5q66 12 80 16q20 8 27 27.5t10 83.5q6 334 -11 417q-12 55 -58 99.5t-132 44.5t-156 -60q-23 -16 -22 -45q0 -424 4 -479q4 -47 14 -65.5t39 -26.5q25 -6 68 -12q4 -4 4 -15.5t-4 -15.5q-4 0 -79 2t-126 2q-39 0 -101.5 -3t-76.5 -3 q-4 2 -3 15.5t5 17.5q53 8 67 12q41 12 43 96q4 98 4 350l-2 549q-12 0 -50 -1t-66 -1q4 41 12 51h104q0 84 -6 156q-4 53 -39 64q-27 8 -82 12q-4 2 -3 13z" />
<glyph unicode="&#x45c;" horiz-adv-x="831" d="M32 12.5q-1 12.5 3 14.5q47 4 69 10q41 10 43 53q4 27 5 322q0 209 -5 278q-2 49 -45 60q-29 6 -63 10q-4 23 4 33q2 0 59.5 -3.5t112.5 -3.5q39 0 81 2.5t69.5 3.5t31.5 1q4 -6 5 -17.5t-3 -13.5q-25 -2 -63 -12q-41 -10 -43 -58l-2 -278q104 2 147 51q37 43 72 129 q39 96 79 147.5t63.5 60.5t58 9t53.5 -27q6 -33 -23 -118q-6 -10 -14 -7q-47 27 -86 27q-41 0 -92 -111q-49 -111 -96 -153q53 -18 86 -66q18 -25 82.5 -120t95.5 -136q35 -45 59.5 -57t91.5 -16q2 -2 2 -16.5t-4 -16.5q-49 -6 -157 -6q-84 0 -134 57q-20 27 -155 246 q-55 88 -129 90q0 -168 4 -283q2 -47 47 -59q37 -10 70 -12q4 -23 -4 -33q-10 0 -90 3t-95 3q-43 0 -113.5 -3t-72.5 -3q-4 6 -5 18.5zM416 899q90 215 129 289q16 6 64 10t59 0q2 -2 4 -7t0 -7q-39 -61 -232 -301q-16 0 -24 16z" />
<glyph unicode="&#x45d;" horiz-adv-x="956" d="M33 10.5q0 14.5 2 16.5q61 10 69 12q29 8 37.5 31.5t8.5 87.5q0 45 1 142t1 146q0 92 -5 244q-2 49 -45 60q-29 6 -63 10q-4 23 4 33q2 0 59.5 -3.5t112.5 -3.5q39 0 81 2.5t69.5 3.5t31.5 1q4 -6 5 -17.5t-3 -13.5q-25 -2 -63 -12q-41 -10 -43 -76v-418q0 -14 8 -6 q43 43 176 194.5t172 204.5q10 14 10 31q-2 59 -45 72q-12 2 -55 10q-2 2 0 14t4 15q74 -4 162 -5q70 0 186 7q2 -4 2 -15.5t-2 -15.5q-53 -8 -71 -14q-35 -10 -35 -66q-4 -90 -3 -302t5 -282q4 -39 31 -51q25 -10 100 -20q2 -4 2 -17.5t-4 -15.5q-2 0 -83 4t-128 2 q-121 -4 -139 -6q-4 4 -4 14t2 15q49 16 64.5 29.5t15.5 45.5v482q0 2 -2.5 4t-6.5 0q-27 -35 -350 -404q-10 -10 -10 -37q2 -57 8 -74.5t27 -25.5q41 -12 86 -16q2 -2 0 -16.5t-4 -16.5q-4 0 -73 3t-124 3q-39 0 -104.5 -3t-75.5 -3q-2 2 -2 16.5zM292 1188q1 4 3 8 q12 4 57 8t64 0q31 -70 112 -309q-2 -4 -12 -9t-14 -3q-92 117 -209 301q-2 0 -1 4z" />
<glyph unicode="&#x45e;" horiz-adv-x="806" d="M-19 774q1 12 5 14q6 0 61 -3t121 -3q49 0 111.5 3t66.5 3q4 -4 4 -15t-2 -15q-55 -12 -67 -17q-20 -10 -15 -30q14 -51 98.5 -273.5t100.5 -255.5h4q147 328 174 496q8 49 -39 63l-82 17q-2 4 -1 16t5 14q8 0 68.5 -3t97.5 -3q10 0 158 6q4 -2 4 -14t-4 -16 q-51 -10 -64 -17q-47 -16 -73 -84q-219 -598 -492 -1089l-71 -115l-11 -4q-57 14 -78 49q-6 12 -2 21q223 279 320 487q-12 29 -17 37q-106 289 -200 520q-41 102 -60.5 135t-52.5 43q-29 10 -67 17q-2 4 -1 16zM229 1081q0 14 17.5 35t38.5 33q14 0 14 -4q25 -117 162 -117 q113 0 176 98q4 4 17.5 13.5t17.5 9.5q8 0 8 -8q-27 -82 -97.5 -138.5t-166.5 -56.5q-74 0 -130.5 38t-56.5 97z" />
<glyph unicode="&#x45f;" horiz-adv-x="952" d="M32 11.5q-1 13.5 3 15.5q8 2 30.5 4t34.5 6q27 8 36 24.5t11 55.5q4 84 5 299q0 217 -2 276q-2 47 -44 56q-12 2 -67 12q-4 23 4 33q2 0 59.5 -3.5t112.5 -3.5q39 0 81 2.5t70.5 3.5t32.5 1q4 -6 4 -17.5t-4 -15.5q-25 -2 -63 -12q-41 -10 -41 -56v-4q0 -31 -1 -150.5 t-1 -144.5q0 -303 2 -327q4 -16 20 -17q41 -2 164 -2t158 2q18 0 18 21q4 45 4 327q0 41 -1 164t-1 125q-2 31 -11 42t-34 20q-6 2 -17 4t-26.5 5t-21.5 5q-2 2 -1 15.5t5 15.5q10 0 74.5 -3.5t109.5 -3.5q55 0 174 7q6 -20 0 -31l-32 -6q-29 -6 -40.5 -9.5t-22.5 -19.5 t-11 -45q-2 -47 -2 -272q0 -279 2 -299q0 -35 14 -50.5t45 -21.5q12 -2 68 -12q4 -2 2 -16.5t-6 -16.5q-27 0 -95.5 3t-105.5 3h-135q-18 0 -31 -25q-29 -57 -57 -262q-2 -4 -17.5 -6t-17.5 2q-16 186 -51 266q-2 6 -12.5 15.5t-20.5 9.5h-158q-33 0 -104.5 -3t-83.5 -3 q-4 4 -5 17.5z" />
<glyph unicode="&#x462;" horiz-adv-x="1294" d="M41 885q31 135 35 289q0 4 4 10t8 4q76 -31 199 -31h164q10 0 10 10q0 102 -10.5 132t-49.5 40q-29 8 -79 13q-4 2 -4.5 16t4.5 16q18 0 91.5 -3t114.5 -3q53 0 130 3t92 3q4 -4 4 -15t-4 -15q-49 -6 -72 -11q-39 -8 -51.5 -42.5t-12.5 -133.5q0 -10 11 -10h311 q109 0 186 27q8 0 8 -13q-25 -59 -45 -290q-4 -4 -17 -5.5t-15 3.5q-10 82 -23 133q-10 45 -29.5 64.5t-60.5 21.5q-141 8 -317 4q-8 0 -9 -10v-416q0 -6 7 -6q92 10 217 10q178 0 278.5 -83t100.5 -239q0 -180 -148 -284q-119 -86 -342 -86q-31 0 -231.5 3t-231.5 3 q-2 4 -2 16.5t2 16.5q102 10 119 12q43 8 59.5 33.5t16.5 101.5q0 150 1 457t1 459q0 12 -8 12q-166 0 -203 -2q-74 -4 -113 -70q-20 -33 -63 -156q-4 -4 -18.5 0.5t-14.5 10.5zM614 612q2 -39 3 -220t6 -232q8 -59 26 -78q47 -49 142 -49q258 0 258 293q0 141 -84 221 t-258 80q-53 0 -86 -4q-7 -1 -7 -11z" />
<glyph unicode="&#x463;" horiz-adv-x="888" d="M23 561q27 129 26 234q2 8 10 10q47 -20 113 -21h113q6 0 6 9q0 238 -4 266q-2 18 -7.5 27.5t-24.5 19.5t-58 18q-2 4 -2 15.5t4 13.5q119 4 241 55q4 -2 7.5 -9t1.5 -9q-18 -25 -19 -166v-231q0 -8 6 -9h203q78 0 131 19q8 0 8 -10q-20 -72 -33 -230q-4 -4 -17 -4t-15 4 q-6 72 -29 123q-16 45 -61 45q-37 4 -104.5 4t-80.5 -2q-8 0 -8 -10v-258q61 6 150 6q106 0 181 -54.5t75 -168.5q0 -66 -35 -124t-96 -91q-86 -47 -252 -43q-102 0 -295 4q-2 4 -2 16.5t2 16.5q59 6 82 12q29 6 38 26.5t11 57.5q6 186 2 600q0 10 -8 10q-61 4 -107 -2 q-33 -4 -57 -39q-2 -4 -68 -141q-2 -2 -14 2t-14 8zM428 426q0 -279 8 -332q4 -27 39 -45t70 -18q72 0 109.5 53t37.5 139q0 211 -264 203z" />
<glyph unicode="&#x470;" horiz-adv-x="1445" d="M41 1018q27 49 81 87t103 38q82 0 142 -139q20 -43 55 -137.5t49 -125.5q61 -137 164 -161q8 -4 8 6q0 498 -2 598q-6 43 -18.5 59.5t-47.5 24.5q-27 6 -63 12q-4 4 -3 16.5t5 14.5q31 0 97.5 -3t117.5 -3q86 0 141.5 3t67.5 3q6 -4 6 -15.5t-6 -15.5l-61 -12 q-43 -8 -56.5 -24.5t-17.5 -59.5q-4 -168 -4 -596q0 -8 8 -8q100 16 176 155q8 18 52 111.5t63 128.5q43 88 83 128t95 40q53 0 90 -43t41 -94q-6 -16 -14 -13q-25 10 -80.5 10.5t-106.5 -85.5q-137 -227 -174 -267q-92 -96 -223 -112q-10 -2 -10 -13q0 -309 2 -370 q2 -66 18.5 -86.5t63.5 -32.5q27 -6 86 -10q4 -6 3 -18.5t-7 -16.5q-14 0 -90 4t-130 4q-61 0 -163.5 -4t-106.5 -4q-6 4 -7 16t7 19q10 0 92 14q68 14 72 117q2 31 3 171t1 193q0 8 -8 13q-143 25 -240 129q-33 35 -174 272q-49 76 -94 76q-12 0 -78 -17q-16 7 -8 23z" />
<glyph unicode="&#x471;" horiz-adv-x="1036" d="M-15 659.5q-1 16.5 3 20.5q39 53 98 94t102 41q72 0 111 -143q20 -82 55 -234.5t43 -179.5q31 -100 55.5 -140t63.5 -50q0 43 -3 516t-5 563q18 18 94 51l8 -8q-4 -115 -6 -547t-4 -577q0 -8 10 -9q45 8 79 76t75 217q70 256 98 307q31 59 85 94t84 40.5t52 5.5 q4 -2 7.5 -13.5t1.5 -15.5q-59 -31 -94 -72t-79.5 -138t-119.5 -312q-76 -211 -199 -260q-6 0 -6 -11q0 -385 -4 -532q0 -8 -15 -8q-2 0 -15 8t-27.5 22.5t-16.5 24.5q0 47 -1 258t-1 227q-166 12 -233 207q-18 51 -58.5 191.5t-46.5 163.5q-25 84 -43 115.5t-49 31.5 q-45 0 -94 -45q-4 4 -5 20.5z" />
<glyph unicode="&#x472;" horiz-adv-x="1474" d="M100 635q0 219 111 381q86 125 232.5 197.5t316.5 72.5q291 0 451.5 -184t160.5 -455q0 -250 -119 -420q-86 -129 -227 -197.5t-301 -68.5q-137 0 -259 51t-200 138q-166 186 -166 485zM274 694q0 -25 15 -26q70 -6 499 -6q358 0 408 4q4 0 4 10q-14 147 -71.5 272 t-155.5 197q-113 88 -277 88q-113 0 -196 -51q-106 -66 -164 -195t-62 -293zM281 586q29 -340 239 -488q111 -78 271 -78q143 0 229 74q186 158 186 488v32q-51 -20 -442 -20q-100 0 -278.5 1t-196.5 1q-8 0 -8 -10z" />
<glyph unicode="&#x473;" horiz-adv-x="952" d="M72 401q0 215 174 332q121 78 258 78q174 0 274.5 -113.5t100.5 -285.5q0 -248 -183 -361q-104 -74 -231 -74q-199 0 -296 124t-97 300zM225 444q0 -10 8 -10q41 -4 232.5 -5t257.5 3q-14 162 -86 244t-188 82q-104 0 -165 -84.5t-59 -229.5zM227 373q10 -168 89 -254 t192 -86q111 0 163 86t56 268q-33 -18 -225 -18q-228 0 -275 4z" />
<glyph unicode="&#x474;" horiz-adv-x="1286" d="M-53 1223q-2 6 0 18t6 14q16 0 94 -3t127 -3q80 0 157 3t87 3q4 -2 4 -15t-4 -17q-66 -10 -94 -21q-39 -12 -25 -55q45 -121 191.5 -492.5t171.5 -431.5h8q100 264 235 613q176 444 307 444q61 0 80 -39q10 -29 -2 -106q-4 -16 -18 -17q-55 31 -107 31q-35 -2 -61.5 -32 t-56.5 -97q-111 -236 -312 -791q-66 -178 -84 -243q-12 2 -44 2t-46 -2q-41 147 -92 276q-217 588 -317 809q-33 74 -55.5 100.5t-63.5 36.5q-61 13 -86 15z" />
<glyph unicode="&#x475;" horiz-adv-x="835" d="M-27 758q-2 2 0 15t7 15q16 0 82.5 -3t99.5 -3q70 0 180 6q4 -2 4 -14t-2 -16q-59 -10 -78 -19q-12 -8 -8 -32q80 -248 188 -500q4 -4 9 0q94 248 114 297q125 307 213 307q37 0 58 -33q4 -14 -1 -64t-14 -59q-47 20 -94 21q-39 0 -72 -70q-31 -68 -165 -438 q-31 -80 -60 -178q-6 2 -30.5 2t-32.5 -2q-68 225 -213 579q-43 106 -60.5 133t-54.5 41q-21 7 -70 15z" />
<glyph unicode="&#x490;" horiz-adv-x="907" d="M49 9.5q0 13.5 4 17.5q59 2 94 14q39 10 50.5 33.5t15.5 81.5q4 70 4 481q0 393 -4 457q-4 55 -11 74.5t-40 33.5q-23 10 -107 23q-2 2 -2 15t4 15q8 0 86 -3t148 -3h387q53 0 96 52.5t92 197.5q2 4 15.5 1t15.5 -7q0 -39 -24.5 -153.5t-38.5 -135.5q-20 -14 -111 -14 h-322q-23 -4 -22 -37q-4 -86 -4 -528q0 -369 2 -461q2 -57 17.5 -85t56.5 -38q45 -10 102 -14q12 -12 0 -33q-20 0 -108.5 3t-147.5 3q-61 0 -142 -3t-102 -3q-4 2 -4 15.5z" />
<glyph unicode="&#x491;" horiz-adv-x="614" d="M29 778.5q0 12.5 4 12.5q6 0 66.5 -3.5t105.5 -3.5h252q35 0 59 29q25 31 86 178q20 0 33 -8q-25 -178 -55 -235q-16 -14 -117 -15q-133 0 -154 -2q-4 0 -9 -7t-5 -11v-297q0 -207 2 -303q0 -59 43 -74q29 -6 90 -16q2 -4 1 -15.5t-5 -13.5q-18 0 -94 3t-111 3 q-49 0 -112.5 -3t-73.5 -3q-4 2 -5 13t5 16q63 10 82 16q29 12 30 88q4 106 5 258q0 270 -2 303q-2 31 -29 49q-23 10 -90 25q-2 4 -2 16.5z" />
<glyph unicode="&#x492;" horiz-adv-x="978" d="M51 10.5q0 12.5 2 16.5q74 6 94 12q39 8 51.5 32.5t14.5 84.5q4 135 4 462q-43 -2 -133 -2q4 43 14 54h119q0 365 -4 424q-2 41 -4 56t-12.5 30.5t-32.5 25.5q-8 2 -109 19q-2 2 -2 15t2 15q8 0 86 -3t146 -3h446q119 0 180 15q4 0 9 -9q-23 -66 -33 -276q-2 -6 -16.5 -7 t-16.5 3q-8 94 -39 160q-23 53 -78 55q-49 2 -173 2t-163 -2q-25 -2 -24 -35q-4 -84 -4 -485q43 0 141 1t111 1q0 -29 -9 -54q-86 0 -243 -2q0 -88 1 -252.5t1 -199.5q4 -59 16.5 -86t50.5 -37q43 -10 113 -14q8 -23 0 -33q-29 0 -113 3t-143 3q-55 0 -135 -3t-113 -3 q-2 4 -2 16.5z" />
<glyph unicode="&#x493;" horiz-adv-x="681" d="M20 9.5q0 13.5 3 17.5q49 4 75 14q20 8 26.5 23.5t8.5 62.5q4 45 4 256h-92q6 41 10 43h82v250q-4 51 -22 63q-20 12 -84 25q-2 2 -2 15.5t4 13.5q6 0 66.5 -3.5t105.5 -3.5h297q76 0 143 7q6 0 6 -9q-20 -68 -37 -239q-4 -4 -15 -4t-15 2q-10 78 -31 139q-18 47 -53 49 q-20 4 -98 4t-103 -2q-14 0 -14 -20q-4 -78 -4 -287q55 0 109 1t56 1q0 -33 -6 -45h-159q0 -186 4 -270q2 -57 45 -72q27 -8 90 -14q4 -6 1 -18.5t-7 -14.5q-18 0 -96 3t-113 3q-49 0 -110.5 -3t-71.5 -3q-3 2 -3 15.5z" />
<glyph unicode="&#x496;" horiz-adv-x="1802" d="M-35 9.5q0 13.5 4 17.5q106 8 152.5 34.5t95.5 88.5q25 33 67 95t85 127.5t53 80.5q61 92 104 137t99 72q4 4 0 8q-70 53 -189 284q-59 117 -99 156t-83 39q-63 0 -137 -37q-4 -2 -10.5 5t-6.5 11q0 68 29 119q10 18 25 25q23 12 53 12q82 0 128 -47t99 -154 q98 -201 156 -295q39 -63 88 -90.5t139 -27.5q0 395 -2 436q-2 33 -5 50.5t-18.5 31.5t-41.5 20q-12 2 -30 5.5t-37 5.5t-28 4q-4 4 -2 17t6 15q12 0 94.5 -3t133.5 -3q66 0 143 4l78 2q6 -2 6 -15t-8 -15q-31 -4 -72 -15q-41 -8 -51 -31.5t-12 -84.5v-416q0 -8 10 -8 q78 0 120 18.5t79 63.5q49 57 112 182q102 207 168 278.5t156 71.5q37 0 63 -20q12 -6 13 -23q0 -61 -33 -121q-2 -6 -9.5 -9t-9.5 -1q-45 37 -106 37q-72 0 -158 -166q-129 -242 -207 -307q-2 -2 -2 -5t2 -5q78 -37 142 -132q104 -162 205 -307q86 -127 140 -163.5 t169 -34.5q4 0 4 -13q-51 -147 -86 -358q-4 -6 -18.5 -9t-22.5 -1q-4 236 -37 309q-4 27 -33 29q-123 10 -182 69q-70 70 -295 436q-84 141 -182 142q-6 0 -6 -8q0 -297 4 -478q2 -51 16 -72.5t55 -31.5q18 -6 86 -14q4 -4 4.5 -16.5t-6.5 -16.5q-6 0 -41.5 1t-92 3 t-111.5 2q-29 0 -213 -6q-6 0 -6 14.5t4 18.5l61 10q53 8 68.5 37.5t19.5 115.5q2 94 2 441q-117 -10 -178 -101q-37 -53 -138.5 -215.5t-115.5 -183.5q-59 -74 -97 -99.5t-95 -33.5q-94 -10 -222 -4q-6 2 -6 15.5z" />
<glyph unicode="&#x497;" horiz-adv-x="1210" d="M-31 9.5q0 13.5 4 15.5q57 6 82 19t62 60q18 25 77.5 111t92.5 129q35 49 96 72q-41 35 -98 162q-33 72 -56.5 92t-52.5 20q-33 0 -108 -31q-12 0 -13 9q0 78 17 110q18 33 67 33q53 0 92 -37t91 -170q31 -78 65 -131q43 -59 148 -59q0 213 -5 282q-2 49 -47 58 q-6 2 -25.5 5t-31.5 7q-6 14 4 27q8 0 69.5 -3.5t96.5 -3.5q37 0 76 2.5t66.5 3.5t31.5 1q12 -14 0 -27q-14 -4 -29.5 -7t-23.5 -5q-16 -4 -24.5 -8.5t-14.5 -19.5t-6 -44l-2 -268q70 2 105.5 18.5t60.5 52.5q31 47 59 117q55 131 96 170t90 39q43 0 62 -25q4 -25 -23 -116 q-6 -6 -14 -2q-45 20 -80 20q-23 0 -42 -20.5t-52 -89.5q-55 -119 -103 -156q61 -25 89 -60q35 -47 94 -139t82 -123q33 -45 59.5 -57t89.5 -14l4 -9q-45 -123 -69 -296q-2 -4 -17.5 -5.5t-17.5 2.5q-10 186 -31 242q-10 25 -33 27q-47 6 -74.5 17t-52.5 44 q-29 43 -84 139.5t-67 116.5q-47 74 -131 76q0 -178 4 -293q2 -43 51 -55q14 -4 37.5 -7t30.5 -5q4 -4 2 -15.5t-7 -13.5q-2 0 -66.5 3t-113.5 3q-43 0 -115.5 -3t-74.5 -3q-12 16 0 29q12 4 33.5 8t33.5 6q43 10 45 47q4 23 5 299q-53 -2 -81 -22.5t-57 -65.5 q-135 -221 -164 -254q-47 -51 -192 -51q-35 0 -68 4q-4 2 -4 15.5z" />
<glyph unicode="&#x49a;" horiz-adv-x="1216" d="M48 10.5q-1 14.5 3 16.5q66 8 78 10q53 10 66.5 39.5t17.5 116.5q4 188 4 477q0 354 -4 438q-2 33 -5 48t-17.5 30.5t-40.5 21.5q-45 10 -93 15q-4 4 -3 17t7 15q14 0 99.5 -3t136.5 -3q61 0 130 3t85 3q4 -2 5 -16t-5 -16q-53 -8 -72 -13q-43 -8 -53 -31.5t-12 -84.5 q-2 -80 -2 -424q0 -8 8 -8q150 0 215 83q55 76 104 177q100 211 168 286.5t164 75.5q29 0 58 -20q12 -6 12 -25q0 -70 -29 -123q-12 -16 -18 -10q-59 41 -109 41q-43 0 -76.5 -37t-85.5 -139q-133 -256 -194 -299q-4 -4 -2 -8q45 -20 98 -95l258 -350q102 -131 154.5 -159.5 t167.5 -32.5q6 0 6 -15q-55 -156 -88 -356q-4 -8 -18.5 -11t-20.5 1q-4 231 -39 309q-4 27 -76 39q-92 10 -151 65q-20 20 -45 52t-61 80.5t-61.5 86t-75.5 108.5t-77 110q-49 68 -86 96.5t-96 30.5q-6 0 -6 -9q0 -287 4 -471q2 -53 14 -72.5t53 -29.5q20 -4 88 -14 q4 -4 3 -16.5t-5 -16.5q-10 0 -102 3t-137 3q-68 0 -234 -6q-6 2 -7 16.5z" />
<glyph unicode="&#x49b;" horiz-adv-x="831" d="M32 12.5q-1 12.5 3 14.5q47 4 69 10q41 10 43 53q4 27 5 322q0 209 -5 278q-2 49 -45 60q-29 6 -63 10q-4 23 4 33q2 0 59.5 -3.5t112.5 -3.5q39 0 81 2.5t69.5 3.5t31.5 1q4 -6 5 -17.5t-3 -13.5q-25 -2 -63 -12q-41 -10 -43 -58l-2 -278q104 2 147 51q37 43 72 129 q39 96 79 147.5t63.5 60.5t58 9t53.5 -27q6 -33 -23 -118q-6 -10 -14 -7q-47 27 -86 27q-41 0 -92 -111q-49 -111 -96 -153q53 -18 86 -66q18 -25 82.5 -120t95.5 -136q33 -45 59.5 -57t91.5 -16l4 -9q-45 -125 -69 -294q-2 -4 -16.5 -5.5t-16.5 2.5q-10 182 -33 242 q-10 23 -26 19q-82 0 -136 63q-20 27 -155 246q-55 88 -129 90q0 -168 4 -283q2 -47 47 -59q37 -10 70 -12q4 -23 -4 -33q-10 0 -90 3t-95 3q-43 0 -113.5 -3t-72.5 -3q-4 6 -5 18.5z" />
<glyph unicode="&#x4a2;" horiz-adv-x="1439" d="M47 9.5q0 13.5 4 17.5q59 6 99 18q41 12 51 43t14 111q2 66 2 442q0 406 -4 475q-6 78 -53 90q-23 6 -109 17q-12 12 0 32q27 0 116 -3t130 -3q53 0 225 6q4 -4 3 -17t-5 -15q-47 -4 -82 -15q-33 -10 -45 -27.5t-14 -66.5q-4 -88 -4 -420q4 -12 10 -16q12 -4 358 -4 q293 0 316 2q8 0 8 10q0 377 -4 451q-4 55 -43 69q-45 12 -100 17q-4 4 -5.5 16t5.5 16q14 0 94 -3t141 -3q57 0 137 3t88 3q12 -20 0 -32q-84 -14 -90 -17q-33 -12 -45 -31.5t-14 -76.5q-6 -117 -6 -488q0 -373 6 -475q2 -59 28.5 -76.5t129.5 -31.5q6 -2 6 -13 q-70 -170 -90 -350q-4 -6 -20.5 -8t-22.5 2q-6 203 -37 307q-12 35 -45 35h-52q-88 0 -217 -6q-12 16 0 33q72 8 97 14q33 10 44 30.5t13 75.5q2 61 2 443q0 14 -10 14q-31 2 -318 2q-336 0 -356 -4q-8 0 -8 -12q0 -322 4 -420q0 -6 1 -21.5t2 -20.5t2 -17.5t3 -16.5t5 -12 t6 -12t8.5 -9.5t11.5 -8.5t14 -5q51 -14 109 -20q4 -4 1 -17.5t-7 -15.5q-172 6 -234 6q-109 0 -250 -6q-4 2 -4 15.5z" />
<glyph unicode="&#x4a3;" horiz-adv-x="952" d="M32 11.5q-1 13.5 3 15.5q31 4 63 12q29 8 38 23.5t11 54.5q4 84 5 299q0 197 -5 272q-4 51 -45 60q-10 2 -63 12q-4 23 4 33q2 0 59.5 -3.5t112.5 -3.5q39 0 81 2.5t69.5 3.5t31.5 1q4 -6 5 -18.5t-3 -14.5q-25 -2 -63 -12q-41 -10 -41 -56v-243q0 -8 10 -9h168h180 q8 0 9 9q0 23 -1.5 78t-2.5 107t-1 56q0 45 -47 60q-6 2 -30.5 6t-30.5 6q-2 2 -1 15.5t5 15.5q10 0 73.5 -3.5t108.5 -3.5q70 0 174 7q4 -2 4 -16.5t-4 -14.5l-37 -6q-37 -6 -51 -21.5t-16 -52.5q-2 -47 -2 -272q0 -61 1 -172t1 -127q0 -39 21.5 -52.5t105.5 -27.5 q2 0 2 -8q-39 -102 -68 -291q-2 -2 -17 -4t-18 0q-4 184 -32 245q-12 27 -37 27q-39 0 -88 -2t-85 -3t-40 -1q-4 4 -5 16.5t3 16.5q37 4 76 14t39 68v266q0 6 -7 6h-354q-6 0 -6 -10q0 -170 2 -252q2 -66 43 -78q23 -8 76 -14q4 -4 3 -15.5t-7 -17.5q-6 0 -75 3t-110 3 q-33 0 -105.5 -3t-84.5 -3q-4 4 -5 17.5z" />
<glyph unicode="&#x4ae;" horiz-adv-x="1097" d="M-33 1240q0 11 4 15q25 0 109 -3t141 -3q119 0 199 6q6 -2 6 -15t-4 -15q-14 -2 -66 -15q-45 -12 -18 -69q133 -274 270 -516h8q203 352 261 491q16 39 5.5 61.5t-53.5 30.5q-14 4 -40.5 8.5t-45.5 8.5q-4 4 -3 16t8 14q160 -6 204 -6q47 0 118 3t85 3q4 -2 4 -14t-4 -16 l-84 -17q-45 -10 -71.5 -37.5t-59.5 -85.5q-219 -362 -285 -514q-16 -27 -16 -67l6 -328q2 -68 15.5 -98.5t56.5 -40.5q39 -8 96 -14q2 -4 0 -15.5t-4 -13.5q-16 0 -108.5 3t-149.5 3q-66 0 -147.5 -3t-106.5 -3q-4 4 -4 14t4 15q57 4 115 16q39 8 52 36.5t15 84.5l4 297 q0 68 -16 98q-78 176 -246 477q-61 109 -90 137.5t-74 40.5q-12 4 -25.5 6.5t-30.5 4.5t-32 4q-2 4 -2 15z" />
<glyph unicode="&#x4af;" horiz-adv-x="790" d="M-27 758q-2 2 0 15t4 15q16 0 84 -3t101 -3q70 0 180 6q4 -2 4 -14t-2 -16q-59 -10 -78 -19q-10 -6 -10 -28q16 -59 96 -292t92 -263h9q80 211 161 485q14 57 11.5 72.5t-23.5 21.5q-37 16 -92 23q-2 6 0 17t6 13q6 0 68.5 -3t101.5 -3q82 0 150 6q4 -2 4 -14t-4 -16 q-63 -12 -68 -15q-47 -16 -72 -75q-109 -256 -209 -559q-14 -43 -14 -99q0 -358 2 -407q0 -63 53 -76q51 -12 70 -14q4 -2 3 -15.5t-5 -15.5q-8 0 -75.5 3t-123.5 3q-39 0 -108.5 -3t-77.5 -3q-4 2 -5 13t3 16q76 14 78 14q43 12 43 65v430q0 35 -21 97q-129 387 -153 452 q-41 109 -57.5 134.5t-53.5 39.5q-21 7 -72 15z" />
<glyph unicode="&#x4b0;" horiz-adv-x="1097" d="M-33 1240q0 11 4 15q25 0 109 -3t141 -3q119 0 199 6q4 -4 4 -15t-2 -15q-14 -2 -66 -15q-45 -12 -18 -69q133 -274 270 -516h8q203 352 261 491q16 39 5.5 61.5t-53.5 30.5q-14 4 -40.5 8.5t-45.5 8.5q-2 2 0 15t5 15q160 -6 204 -6q47 0 118 3t85 3q4 -2 4 -14t-4 -16 l-84 -17q-45 -10 -71.5 -37.5t-59.5 -85.5q-217 -360 -281 -503h110q56 0 92 1t38 1q0 -33 -8 -58q-127 0 -248 -2q-4 -16 -4 -30l6 -318q2 -68 15.5 -98.5t56.5 -40.5q39 -8 96 -14q2 -4 0 -15.5t-4 -13.5q-16 0 -108.5 3t-149.5 3q-66 0 -147.5 -3t-106.5 -3q-4 4 -4 14 t4 15q57 4 115 16q39 8 52 36.5t15 84.5l4 293q0 45 -8 73q-37 0 -129 -1t-113 -1q6 51 13 58h209q-63 145 -234 450q-61 109 -90 137.5t-74 40.5q-12 4 -25.5 6.5t-30.5 4.5t-32 4q-2 4 -2 15z" />
<glyph unicode="&#x4b1;" horiz-adv-x="790" d="M-27 758q-2 2 0 15t4 15q16 0 84 -3t101 -3q70 0 180 6q4 -2 4 -14t-2 -16q-59 -10 -78 -19q-10 -6 -10 -28q16 -59 96 -292t92 -263h9q80 211 161 485q14 57 11.5 72.5t-23.5 21.5q-37 16 -92 23q-2 6 0 17t6 13q6 0 68.5 -3t101.5 -3q82 0 150 6q4 -2 4 -14t-4 -16 q-63 -12 -68 -15q-47 -16 -72 -75q-76 -178 -194 -516q-18 -53 -21 -68h60q43 0 96 1t55 1q0 -41 -6 -53h-213v-56q0 -326 2 -374q0 -63 53 -76q51 -12 70 -14q4 -2 3 -15.5t-5 -15.5q-8 0 -75.5 3t-123.5 3q-39 0 -108.5 -3t-77.5 -3q-4 2 -5 13t3 16q76 14 78 14 q39 10 43 65v414q0 16 -2 29q-55 0 -129 -1t-78 -1q0 41 8 53q25 0 88.5 -1t99.5 -1q-4 25 -14 53q-92 291 -147 434q-41 109 -57.5 134.5t-53.5 39.5q-21 7 -72 15z" />
<glyph unicode="&#x4b2;" horiz-adv-x="1191" d="M-33 9.5q0 13.5 2 17.5q74 8 109 16q70 16 155 133q104 141 295 428q4 10 0 17q-158 287 -247 434q-27 45 -35 57t-26.5 37t-37 36t-45.5 19q-57 14 -121 21q-4 4 -4 16t4 14q39 0 118 -3t145 -3q123 0 202 6q2 -2 2 -14t-2 -16q-55 -12 -67 -17q-25 -8 -13 -34 q10 -27 55.5 -106t102.5 -177t78 -137q6 -4 10 0q213 332 234 397q14 43 -23 51q-25 8 -102 21q-2 4 0 17t4 15q16 0 79.5 -3t112.5 -3q68 0 143.5 3t80.5 3q4 -18 0 -30q-90 -16 -103 -21q-49 -14 -83 -42.5t-99 -127.5q-123 -188 -213 -332q-4 -4 0 -16l250 -436 q92 -160 149 -189q29 -14 144 -24q4 0 4 -12q-53 -137 -88 -357q-4 -8 -18.5 -11t-20.5 1q-6 233 -39 301q-18 41 -90 41q-49 0 -103.5 -2t-92.5 -4t-44 -2q-4 4 -5 17.5t3 17.5q82 16 88 18q29 10 14 39q-53 119 -260 465q-2 4 -5 4t-3 -4q-217 -315 -280 -447 q-18 -47 30 -59q49 -10 90 -16q2 -4 1 -16.5t-5 -16.5q-25 0 -100.5 3t-112.5 3q-35 0 -215 -8q-2 4 -2 17.5z" />
<glyph unicode="&#x4b3;" horiz-adv-x="751" d="M-37 9.5q0 13.5 2 17.5q86 12 117 31.5t78 80.5q33 45 157 228v12l-141 248q-51 84 -78.5 102.5t-109.5 26.5q-2 4 -1 17t5 15q14 0 76.5 -3t124.5 -3q51 0 108 3t61 3q2 -2 3.5 -15t-0.5 -17q-53 -10 -62 -13q-23 -8 -12 -32q27 -63 121 -222q4 -8 8 0q92 129 123 203 q16 35 -19 47q-27 10 -75 17q-4 4 -4.5 16t4.5 16q14 0 74.5 -3t76.5 -3q78 0 164 6q2 -2 3 -15t-1 -17q-80 -14 -109.5 -31.5t-72.5 -81.5q-29 -39 -133 -194q-4 -6 -2 -15q100 -178 135 -237q45 -82 92 -129q27 -27 123 -25l4 -8q-47 -133 -74 -311q-2 -4 -16.5 -5.5 t-16.5 2.5q-10 203 -37 256q-10 23 -36 23q-70 0 -138.5 -3t-76.5 -3q-8 23 0 33q53 10 67 16q20 10 10 33q-29 70 -135 243q-4 8 -8 0q-113 -168 -135 -223q-18 -37 16 -51q39 -12 92 -18q2 -4 0 -17.5t-4 -15.5q-6 0 -77.5 4t-104.5 2l-164 -6q-2 2 -2 15.5z" />
<glyph unicode="&#x4b6;" horiz-adv-x="1220" d="M20 1223q-8 18 3 32q12 0 83.5 -3t143.5 -3q55 0 127 3t76 3q2 -2 2 -15t-2 -17q-72 -10 -91.5 -25.5t-23.5 -48.5q-6 -53 0 -250q2 -86 29.5 -143.5t76 -81t88 -30.5t95.5 -7q125 0 215 45q4 4 4 10q0 379 -4 430q-2 43 -15.5 60.5t-50.5 27.5q-25 6 -80 13q-4 4 -4 17 t4 15q27 0 102.5 -3t129.5 -3q70 0 143.5 3t85.5 3q4 -4 5 -16t-3 -16q-74 -12 -88 -17q-35 -10 -47 -29.5t-14 -72.5q-6 -276 -6 -465q0 -432 6 -504q2 -59 28.5 -76.5t128.5 -31.5q6 -2 7 -13q-70 -170 -91 -350q-4 -6 -20 -8t-23 2q-6 203 -36 307q-12 35 -48 35h-22 q-41 0 -126 -3t-118 -3q-2 2 -2 16.5t2 16.5q59 4 88 10q43 10 53.5 38.5t12.5 121.5q2 106 2 440q0 2 -2 6t-4 2q-164 -86 -316 -86q-211 0 -297 117q-51 68 -51 227q0 27 -1 100.5t-1 98.5q0 47 -14.5 72.5t-57.5 35.5q-21 5 -82 13z" />
<glyph unicode="&#x4b7;" horiz-adv-x="831" d="M-4 760q-4 23 4 33q2 0 59.5 -3.5t112.5 -3.5q39 0 75 2.5t58.5 3.5t26.5 1q4 -6 5 -18.5t-3 -14.5q-55 -8 -69.5 -17.5t-16.5 -42.5v-172q12 -137 174 -137q70 0 123 25v132q0 112 -4 148q0 41 -45 54q-6 2 -31 6t-31 6q-2 4 -2 16.5t4 14.5q10 0 73.5 -3.5t108.5 -3.5 q53 0 173 7q2 -4 2 -16.5t-2 -14.5l-33 -4q-27 -4 -39 -9.5t-22.5 -21.5t-12.5 -45q-2 -47 -2 -270q0 -59 1 -170t1 -131q2 -39 23.5 -52.5t105.5 -27.5q2 0 2 -8q-14 -35 -37.5 -137.5t-29.5 -153.5q-2 -2 -17.5 -4t-17.5 0q-8 195 -33 245q-12 27 -37 27h-37 q-37 0 -106.5 -3t-77.5 -3q-4 4 -5 15t3 16q8 2 21.5 4t27.5 4t31 6q37 10 41 63q6 96 4 279q-113 -59 -223 -59q-104 0 -158 45q-57 51 -60 149q-2 37 -2 172q-4 51 -45 60q-16 4 -61 12z" />
<glyph unicode="&#x4ba;" horiz-adv-x="1196" d="M46 9.5q-1 13.5 3 17.5q18 4 52 8t49 8q35 10 47 30.5t14 73.5q6 139 6 463q-2 432 -6 512q-4 37 -15.5 56.5t-50.5 29.5q-31 8 -96 15q-4 4 -2 17t6 15q23 0 96.5 -3t131.5 -3q63 0 137 3t102 3q4 -2 4 -16t-4 -16q-43 -4 -76 -11q-43 -10 -54 -39.5t-13 -119.5 q-2 -106 -2 -379q0 -2 3 -6t5 -2q188 109 338 108q180 0 268 -108q57 -72 58 -236q0 -23 1 -140.5t1 -142.5q0 -49 14 -73.5t55 -34.5q20 -6 84 -12q8 -18 -2 -33q-12 0 -85 3t-142 3q-55 0 -138 -3t-87 -3q-2 2 -2.5 15.5t2.5 17.5q86 10 109.5 24.5t27.5 48.5q6 72 0 336 q-8 254 -256 254q-131 0 -248 -65q-6 -2 -6 -11q0 -436 4 -487q4 -43 16.5 -60.5t48.5 -25.5q23 -6 97 -14q4 -4 4 -17.5t-4 -15.5q-27 0 -111 3t-137 3q-70 0 -150 -3t-92 -3q-4 2 -5 15.5z" />
<glyph unicode="&#x4bb;" horiz-adv-x="948" d="M10 1329q0 10 2 14q158 10 281 66q8 -4 8 -18q-16 -29 -18 -179v-524q0 -6 8 -2q162 125 280 125q113 0 174.5 -83t61.5 -236q0 -305 2 -396q0 -25 14 -39q27 -20 105 -30q2 -6 0 -18.5t-6 -14.5q-6 0 -74 3t-121 3q-96 0 -182 -6q-4 2 -4 15.5t4 17.5q74 12 80 16 q20 10 27 28.5t10 82.5q6 334 -11 417q-12 55 -57 99.5t-131 44.5q-90 0 -156 -58q-25 -18 -24 -47q0 -424 4 -479q4 -47 14 -65.5t39 -26.5q29 -6 68 -12q4 -4 4 -15.5t-4 -15.5l-68 2q-68 2 -137 2q-51 0 -108.5 -3t-69.5 -3q-2 4 -2 16.5t4 16.5q53 8 67 12q41 12 43 96 q4 49 4 350q0 678 -10 768q-6 41 -41 52q-10 2 -78 10q-2 4 -2 14z" />
<glyph unicode="&#x4c0;" horiz-adv-x="589" d="M51 1240q0 11 4 15q16 0 103.5 -3t144.5 -3q61 0 131 3t84 3q10 -16 2 -30l-86 -15q-33 -10 -42 -32.5t-13 -77.5q-6 -117 -6 -459q0 -350 4 -485q2 -37 6 -54.5t17.5 -35t39.5 -23.5q27 -8 101 -16q4 -4 3 -16.5t-5 -16.5q-25 0 -97.5 3t-124.5 3q-61 0 -137 -3t-123 -3 q-12 12 0 33q49 4 90 14q37 8 48.5 28.5t15.5 65.5q6 90 6 555q0 322 -4 416q0 4 -2 15.5t-2 15.5t-2 13t-3 13t-4 11.5t-6.5 11.5t-8.5 8t-10 7t-13 5q-35 10 -107 19q-4 4 -4 15z" />
<glyph unicode="&#x4c1;" horiz-adv-x="1802" d="M706 1550q0 33 55 68q12 0 13 -4q27 -121 143 -121q102 0 158 102q4 4 16 14.5t17 10.5q6 0 6 -8q-23 -86 -87.5 -144.5t-152.5 -58.5q-68 0 -118 39t-50 102zM-35 9.5q0 13.5 4 17.5q106 8 152.5 34.5t95.5 88.5q25 33 67 95t85 127.5t53 80.5q61 92 104 137t99 72 q4 4 0 8q-70 53 -189 284q-59 117 -99 156t-83 39q-63 0 -137 -37q-4 -2 -10.5 5t-6.5 11q0 68 29 119q10 18 25 25q23 12 53 12q82 0 128 -47t99 -154q98 -201 156 -295q39 -63 88 -90.5t139 -27.5q0 395 -2 436q-2 33 -5 50.5t-18.5 31.5t-41.5 20q-12 2 -30 5.5t-37 5.5 t-28 4q-4 4 -2 17t6 15q12 0 94.5 -3t133.5 -3q66 0 143 4l78 2q6 -2 6 -15t-8 -15q-31 -4 -72 -15q-41 -8 -51 -31.5t-12 -84.5v-416q0 -8 10 -8q78 0 120 18.5t79 63.5q49 57 112 182q102 207 168 278.5t156 71.5q37 0 63 -20q12 -6 13 -23q0 -61 -33 -121q-2 -6 -9.5 -9 t-9.5 -1q-45 37 -106 37q-72 0 -158 -166q-129 -242 -207 -307q-2 -2 -2 -5t2 -5q78 -37 142 -132q104 -162 205 -307q86 -127 140 -163.5t167 -34.5q4 -2 3 -16.5t-5 -16.5q-27 -6 -121 -7t-113 3q-88 14 -137 63q-70 70 -295 436q-84 141 -182 142q-6 0 -6 -8 q0 -297 4 -478q2 -51 16 -72.5t55 -31.5q18 -6 86 -14q4 -4 4.5 -16.5t-6.5 -16.5q-6 0 -41.5 1t-92 3t-111.5 2q-29 0 -213 -6q-6 0 -6 14.5t4 18.5l61 10q53 8 68.5 37.5t19.5 115.5q2 94 2 441q-117 -10 -178 -101q-37 -53 -138.5 -215.5t-115.5 -183.5 q-59 -74 -97 -99.5t-95 -33.5q-94 -10 -222 -4q-6 2 -6 15.5z" />
<glyph unicode="&#x4c2;" horiz-adv-x="1210" d="M407 1075q0 33 55 68q12 0 13 -4q27 -121 143 -121q102 0 158 102q4 4 16 14.5t17 10.5q6 0 6 -8q-23 -86 -87.5 -144.5t-152.5 -58.5q-68 0 -118 39t-50 102zM-31 9.5q0 13.5 4 15.5q57 6 82 19t62 60q18 25 77.5 111t92.5 129q35 49 96 72q-41 35 -98 162 q-33 72 -56.5 92t-52.5 20q-33 0 -108 -31q-12 0 -13 9q0 78 17 110q18 33 67 33q53 0 92 -37t91 -170q31 -78 65 -131q43 -59 148 -59q0 213 -5 282q-2 49 -47 58q-6 2 -25.5 5t-31.5 7q-6 14 4 27q8 0 69.5 -3.5t96.5 -3.5q37 0 76 2.5t66.5 3.5t31.5 1q12 -14 0 -27 q-14 -4 -29.5 -7t-23.5 -5q-16 -4 -24.5 -8.5t-14.5 -19.5t-6 -44l-2 -268q70 2 105.5 18.5t60.5 52.5q31 47 59 117q55 131 96 170t90 39q43 0 62 -25q4 -25 -23 -116q-6 -6 -14 -2q-45 20 -80 20q-23 0 -42 -20.5t-52 -89.5q-55 -119 -103 -156q61 -25 89 -60 q35 -47 94 -139t82 -123q33 -43 55 -55t86 -16q2 -2 2 -16.5t-4 -16.5q-25 -4 -158 -4q-78 0 -123 59q-29 43 -84 139.5t-67 116.5q-47 74 -131 76q0 -178 4 -293q2 -43 51 -55q14 -4 37.5 -7t30.5 -5q4 -4 2 -15.5t-7 -13.5q-2 0 -66.5 3t-113.5 3q-43 0 -115.5 -3 t-74.5 -3q-12 16 0 29q12 4 33.5 8t33.5 6q43 10 45 47q4 23 5 299q-53 -2 -81 -22.5t-57 -65.5q-135 -221 -164 -254q-47 -51 -192 -51q-35 0 -68 4q-4 2 -4 15.5z" />
<glyph unicode="&#x4cf;" horiz-adv-x="423" d="M6 25q63 8 88 18q39 14 43 76q4 53 4 622q0 377 -2 459q-2 70 -45 86q-27 10 -82 14q-8 16 2 33q16 0 83 -2t112 -2q61 0 120.5 2t69.5 2q4 -4 4 -15t-2 -18q-43 -6 -67 -12q-29 -8 -36 -25.5t-11 -66.5q-6 -104 -6 -498q0 -438 4 -561q2 -31 5 -45t12 -28.5t28 -20.5 q25 -10 88 -18q2 -4 0 -15.5t-4 -15.5q-23 0 -80.5 3t-102.5 3q-59 0 -129.5 -3t-93.5 -3q-10 15 -2 31z" />
<glyph unicode="&#x4d0;" horiz-adv-x="1146" d="M389 1550q0 33 55 68q12 0 13 -4q27 -121 143 -121q102 0 158 102q4 4 16 14.5t17 10.5q6 0 6 -8q-23 -86 -87.5 -144.5t-152.5 -58.5q-68 0 -118 39t-50 102zM-72 10.5q0 14.5 4 16.5q106 14 142.5 41.5t81.5 134.5q61 150 354 950q20 61 27 98q2 0 21.5 -1t35.5 -1h27 q12 0 19 1t9 1l25 -90q6 -18 149.5 -452.5t180.5 -528.5q41 -96 70.5 -118.5t129.5 -34.5q4 -4 2 -17.5t-6 -15.5q-154 6 -227 6q-168 0 -242 -6q-2 4 -2 15t2 18q80 12 100 20q35 16 23 55q-12 47 -133 404l-8 6q-6 4 -8 4q-20 2 -177 2q-147 0 -170 -2q-12 0 -16 -14 q-121 -326 -127 -377q-2 -18 -1 -33.5t15.5 -29t44.5 -19.5q51 -12 88 -16q2 -4 1 -16.5t-5 -16.5q-16 0 -99 3t-134 3q-53 0 -116.5 -3t-76.5 -3q-4 2 -4 16.5zM377 600q0 -10 8 -12q18 -2 164 -2q125 0 139 2q8 0 4 12l-147 467q-8 0 -8 -2q-17 -43 -160 -465z" />
<glyph unicode="&#x4d1;" horiz-adv-x="772" d="M186 1075q0 33 55 68q12 0 13 -4q27 -121 143 -121q102 0 158 102q4 4 16 14.5t17 10.5q6 0 6 -8q-23 -86 -87.5 -144.5t-152.5 -58.5q-68 0 -118 39t-50 102zM72 197q0 53 22 98q29 16 186.5 67.5t192.5 69.5q12 6 12 19v79q0 70 -34 117q-55 78 -162 78q-45 0 -74 -18 q-47 -33 -82 -148q-2 -2 -12 3t-18.5 15.5t-8.5 18.5q0 16 14.5 53t22.5 45q61 47 140 82t120 35q123 0 187 -102q43 -66 43 -201q0 -57 -3.5 -180t-3.5 -158q0 -90 74 -90q39 0 70 10q0 -33 -8 -41q-66 -74 -160 -74q-70 0 -96 50q-10 18 -15 53q0 2 -3 4t-5 0 q-158 -106 -227 -107q-59 0 -105 45q-67 68 -67 177zM213 229q0 -66 39 -107.5t102 -41.5q55 0 107 31q18 14 18 43q4 127 4 233q0 2 -2 4t-4 0q-225 -74 -250 -98q-14 -15 -14 -64z" />
<glyph unicode="&#x4d2;" horiz-adv-x="1146" d="M366 1476q0 31 8 48q29 29 76 28q37 0 49 -18q14 -14 15 -43q0 -57 -39 -76q-8 -4 -34 -6t-34 2q-41 16 -41 65zM669 1476q0 31 9 48q29 29 75 28q37 0 49 -18q14 -14 15 -43q0 -57 -39 -76q-8 -4 -33.5 -6t-34.5 2q-41 16 -41 65zM-72 10.5q0 14.5 4 16.5 q106 14 142.5 41.5t81.5 134.5q61 150 354 950q20 61 27 98q2 0 21.5 -1t35.5 -1h27q12 0 19 1t9 1l25 -90q6 -18 149.5 -452.5t180.5 -528.5q41 -96 70.5 -118.5t129.5 -34.5q4 -4 2 -17.5t-6 -15.5q-154 6 -227 6q-168 0 -242 -6q-2 4 -2 15t2 18q80 12 100 20 q35 16 23 55q-12 47 -133 404l-8 6q-6 4 -8 4q-20 2 -177 2q-147 0 -170 -2q-12 0 -16 -14q-121 -326 -127 -377q-2 -18 -1 -33.5t15.5 -29t44.5 -19.5q51 -12 88 -16q2 -4 1 -16.5t-5 -16.5q-16 0 -99 3t-134 3q-53 0 -116.5 -3t-76.5 -3q-4 2 -4 16.5zM377 600 q0 -10 8 -12q18 -2 164 -2q125 0 139 2q8 0 4 12l-147 467q-8 0 -8 -2q-17 -43 -160 -465z" />
<glyph unicode="&#x4d3;" horiz-adv-x="772" d="M166 1001q0 31 8 48q29 29 76 28q37 0 49 -18q14 -14 15 -43q0 -57 -39 -76q-8 -4 -34 -6t-34 2q-41 16 -41 65zM469 1001q0 31 9 48q29 29 75 28q37 0 49 -18q14 -14 15 -43q0 -57 -39 -76q-8 -4 -33.5 -6t-34.5 2q-41 16 -41 65zM72 197q0 53 22 98q29 16 186.5 67.5 t192.5 69.5q12 6 12 19v79q0 70 -34 117q-55 78 -162 78q-45 0 -74 -18q-47 -33 -82 -148q-2 -2 -12 3t-18.5 15.5t-8.5 18.5q0 16 14.5 53t22.5 45q61 47 140 82t120 35q123 0 187 -102q43 -66 43 -201q0 -57 -3.5 -180t-3.5 -158q0 -90 74 -90q39 0 70 10q0 -33 -8 -41 q-66 -74 -160 -74q-70 0 -96 50q-10 18 -15 53q0 2 -3 4t-5 0q-158 -106 -227 -107q-59 0 -105 45q-67 68 -67 177zM213 229q0 -66 39 -107.5t102 -41.5q55 0 107 31q18 14 18 43q4 127 4 233q0 2 -2 4t-4 0q-225 -74 -250 -98q-14 -15 -14 -64z" />
<glyph unicode="&#x4d4;" horiz-adv-x="1595" d="M-61 11.5q0 13.5 2 15.5q104 14 143 41.5t92 134.5q254 485 475 968q10 18 -6 25l-51 10q-31 6 -63.5 11.5t-43.5 7.5q-4 4 -1 16t8 14q12 0 114.5 -3t177.5 -3h412q166 0 221 8q6 -4 6 -6q-23 -88 -36 -270q-4 -4 -17.5 -4t-17.5 2q-8 88 -27 137q-14 41 -34.5 57.5 t-73.5 18.5q-39 2 -160 2t-158 -2q-12 -4 -12 -23q4 -57 14 -180t18.5 -222t10.5 -124q0 -6 5 -11t9 -5q221 0 283 4q45 2 62.5 15t31.5 54q14 35 18 80q4 2 19.5 2t17.5 -4q-8 -139 -8 -192q0 -43 3 -105.5t3 -72.5q-4 -2 -18.5 -2t-18.5 2l-18 75q-18 53 -49 66 q-14 6 -35 8q-59 4 -289 4q-8 0 -8 -14q16 -225 39 -393q6 -53 20.5 -69.5t44.5 -21.5q45 -6 254 -6q94 0 142 49q53 57 98 191q4 2 18.5 -2t16.5 -8q-2 -33 -27.5 -131.5t-48.5 -143.5q-10 -18 -80 -18q-29 0 -180.5 3t-327.5 3q-70 0 -156.5 -3t-123.5 -3q-6 2 -6 15.5 t4 17.5q84 6 131 20q35 8 45 32.5t8 86.5q2 18 -29 381q-4 8 -10 8q-20 2 -158 2h-174q-6 0 -22 -16q-14 -31 -63.5 -134.5t-84 -179t-43.5 -100.5q-25 -72 49 -86q53 -10 93 -14q2 -4 2 -16.5t-4 -16.5q-18 0 -100.5 3t-133.5 3q-53 0 -117.5 -3t-74.5 -3q-2 4 -2 17.5z M467 641q0 -10 8 -12q18 -2 166 -2q109 0 123 2q10 0 10 10q-25 352 -41 545q-2 2 -6 3t-6 -1q-244 -520 -254 -545z" />
<glyph unicode="&#x4d5;" horiz-adv-x="1185" d="M72 197q0 51 22 96q23 14 100.5 39.5t166 51.5t110.5 34q10 4 10 16q2 27 2 94q0 72 -32 121q-51 78 -154 78q-41 0 -78 -18q-12 -6 -38.5 -51.5t-43.5 -92.5q-4 -2 -22.5 11.5t-18.5 19.5q0 10 13.5 50t17.5 44q63 51 144 86t124 35q127 0 191 -119q2 -2 10 -2 q59 59 132 90t124 31q61 0 109.5 -24.5t76 -64.5t41 -72t19.5 -64q0 -10 32 -15q-4 -14 -12 -26q-94 -33 -493 -135q-8 0 -9 -15q4 -123 74 -209q84 -104 207 -104q135 0 238 94q2 -4 4 -19.5t0 -19.5q-68 -80 -154 -120t-168 -40q-168 0 -268 136q-6 6 -10 2 q-168 -137 -279 -138q-72 0 -121 50q-67 72 -67 170zM213 229q0 -66 40 -106.5t103 -40.5q100 0 162 63q6 8 4 15q-43 104 -43 213q0 4 -6 4q-215 -63 -244 -80q-16 -17 -16 -68zM614 465q0 -14 9 -12q301 80 329 90q12 6 13 14q-10 74 -58.5 134.5t-126.5 60.5 q-76 0 -123 -78t-43 -209z" />
<glyph unicode="&#x4d6;" horiz-adv-x="1034" d="M694 1550q0 33 55 68q12 0 13 -4q27 -121 143 -121q102 0 158 102q4 4 16 14.5t17 10.5q6 0 6 -8q-23 -86 -87.5 -144.5t-152.5 -58.5q-68 0 -118 39t-50 102zM8 9.5q0 13.5 4 17.5q102 8 131 16q35 10 50.5 33.5t19.5 83.5q4 98 4 518q0 342 -4 424q-4 57 -15.5 77.5 t-47.5 28.5q-29 10 -93 17q-4 4 -3 15t5 15q16 0 92 -3t140 -3h391q164 0 215 8l2 -2q4 -2 4 -4q-20 -76 -37 -268q-4 -4 -17 -4t-18 2q-4 74 -22 131q-12 39 -32.5 57.5t-74.5 20.5q-43 4 -159.5 4t-145.5 -4q-20 -2 -20 -29q-2 -63 -4 -252.5t0 -220.5q0 -16 8 -16 q41 -2 155.5 -2t161.5 4q29 2 47.5 13t25.5 23.5t15 34.5q12 33 19 72q4 2 19.5 2t17.5 -2q-14 -86 -15 -184q0 -45 2 -100.5t2 -69.5q-4 -6 -18 -6t-16 4q-6 43 -15 71q-16 66 -82 72q-39 2 -158.5 3t-158.5 -1q-10 0 -10 -16q-2 -39 0 -202t4 -251q2 -63 47 -71 q61 -12 250 -13q59 0 96 8.5t50.5 16.5t31.5 26q53 47 113 191q2 2 14 -4t14 -10q-6 -43 -35.5 -136.5t-46.5 -128.5q-10 -16 -28.5 -19t-91.5 -3q-41 0 -188.5 3t-309.5 3q-72 0 -158 -3t-123 -3q-4 2 -4 15.5z" />
<glyph unicode="&#x4d7;" horiz-adv-x="790" d="M252 1075q0 33 55 68q12 0 13 -4q27 -121 143 -121q102 0 158 102q4 4 16 14.5t17 10.5q6 0 6 -8q-23 -86 -87.5 -144.5t-152.5 -58.5q-68 0 -118 39t-50 102zM72 387q0 248 176 358q41 27 104.5 46.5t104.5 19.5q88 0 150.5 -52t86 -108.5t33.5 -118.5q4 -14 25 -16 q6 -20 -9 -27q-109 -37 -522 -47q-12 0 -12 -22q4 -137 76 -225q84 -104 225 -105q133 0 223 86q8 0 8 -6q4 -18 -4 -35q-147 -160 -319 -160q-152 0 -240 99q-106 114 -106 313zM215 506q0 -12 6 -12q45 -4 180.5 1t165.5 13q12 6 13 16q-10 92 -58.5 163t-130.5 71 q-72 0 -121 -66.5t-55 -185.5z" />
<glyph unicode="&#x4d8;" horiz-adv-x="1255" d="M96 424q0 14 13 76q74 33 399 41q201 4 467 4q6 0 8 12l2 45q0 86 -13.5 167t-47 162t-85 140t-133 97t-186.5 38q-123 0 -209 -41q-72 -35 -155 -170q-4 0 -17.5 10.5t-11.5 14.5q102 172 135 194q164 76 340 76q268 0 410.5 -189.5t142.5 -449.5q0 -236 -93 -398.5 t-259 -240.5q-100 -53 -238 -53q-213 0 -341 139.5t-128 325.5zM266 418q0 -92 35 -180t120 -155t206 -67q98 0 169.5 45t107.5 120t52.5 145.5t22.5 150.5q0 12 -8 12q-578 14 -666 -10q-39 -8 -39 -61z" />
<glyph unicode="&#x4d9;" horiz-adv-x="794" d="M68 240v57q479 53 510 57q10 2 10 15q-4 147 -74 239q-74 98 -199 99q-131 0 -233 -101q-4 2 -7 19.5t1 19.5q70 80 156.5 123t164.5 43q133 0 221 -94q104 -111 105 -309q0 -115 -45 -215.5t-123 -153.5q-90 -61 -207 -62q-72 0 -127 28t-86 71t-47 84t-20 80zM215 250 q8 -94 58.5 -160.5t140.5 -66.5q70 0 114.5 72.5t55.5 201.5q0 8 -6 8q-14 -2 -169 -17.5t-184 -21.5q-10 -4 -10 -16z" />
<glyph unicode="&#x4da;" horiz-adv-x="1255" d="M377 1480q0 31 8 48q29 29 76 28q37 0 49 -18q14 -14 15 -43q0 -57 -39 -76q-8 -4 -34 -6t-34 2q-41 16 -41 65zM680 1480q0 31 9 48q29 29 75 28q37 0 49 -18q14 -14 15 -43q0 -57 -39 -76q-8 -4 -33.5 -6t-34.5 2q-41 16 -41 65zM96 424q0 14 13 76q74 33 399 41 q201 4 467 4q6 0 8 12l2 45q0 86 -13.5 167t-47 162t-85 140t-133 97t-186.5 38q-123 0 -209 -41q-72 -35 -155 -170q-4 0 -17.5 10.5t-11.5 14.5q102 172 135 194q164 76 340 76q268 0 410.5 -189.5t142.5 -449.5q0 -236 -93 -398.5t-259 -240.5q-100 -53 -238 -53 q-213 0 -341 139.5t-128 325.5zM266 418q0 -92 35 -180t120 -155t206 -67q98 0 169.5 45t107.5 120t52.5 145.5t22.5 150.5q0 12 -8 12q-578 14 -666 -10q-39 -8 -39 -61z" />
<glyph unicode="&#x4db;" horiz-adv-x="794" d="M172 1001q0 31 8 48q29 29 76 28q37 0 49 -18q14 -14 15 -43q0 -57 -39 -76q-8 -4 -34 -6t-34 2q-41 16 -41 65zM475 1001q0 31 9 48q29 29 75 28q37 0 49 -18q14 -14 15 -43q0 -57 -39 -76q-8 -4 -33.5 -6t-34.5 2q-41 16 -41 65zM68 240v57q479 53 510 57q10 2 10 15 q-4 147 -74 239q-74 98 -199 99q-131 0 -233 -101q-4 2 -7 19.5t1 19.5q70 80 156.5 123t164.5 43q133 0 221 -94q104 -111 105 -309q0 -115 -45 -215.5t-123 -153.5q-90 -61 -207 -62q-72 0 -127 28t-86 71t-47 84t-20 80zM215 250q8 -94 58.5 -160.5t140.5 -66.5 q70 0 114.5 72.5t55.5 201.5q0 8 -6 8q-14 -2 -169 -17.5t-184 -21.5q-10 -4 -10 -16z" />
<glyph unicode="&#x4dc;" horiz-adv-x="1802" d="M686 1476q0 31 8 48q29 29 76 28q37 0 49 -18q14 -14 15 -43q0 -57 -39 -76q-8 -4 -34 -6t-34 2q-41 16 -41 65zM989 1476q0 31 9 48q29 29 75 28q37 0 49 -18q14 -14 15 -43q0 -57 -39 -76q-8 -4 -33.5 -6t-34.5 2q-41 16 -41 65zM-35 9.5q0 13.5 4 17.5 q106 8 152.5 34.5t95.5 88.5q25 33 67 95t85 127.5t53 80.5q61 92 104 137t99 72q4 4 0 8q-70 53 -189 284q-59 117 -99 156t-83 39q-63 0 -137 -37q-4 -2 -10.5 5t-6.5 11q0 68 29 119q10 18 25 25q23 12 53 12q82 0 128 -47t99 -154q98 -201 156 -295q39 -63 88 -90.5 t139 -27.5q0 395 -2 436q-2 33 -5 50.5t-18.5 31.5t-41.5 20q-12 2 -30 5.5t-37 5.5t-28 4q-4 4 -2 17t6 15q12 0 94.5 -3t133.5 -3q66 0 143 4l78 2q6 -2 6 -15t-8 -15q-31 -4 -72 -15q-41 -8 -51 -31.5t-12 -84.5v-416q0 -8 10 -8q78 0 120 18.5t79 63.5q49 57 112 182 q102 207 168 278.5t156 71.5q37 0 63 -20q12 -6 13 -23q0 -61 -33 -121q-2 -6 -9.5 -9t-9.5 -1q-45 37 -106 37q-72 0 -158 -166q-129 -242 -207 -307q-2 -2 -2 -5t2 -5q78 -37 142 -132q104 -162 205 -307q86 -127 140 -163.5t167 -34.5q4 -2 3 -16.5t-5 -16.5 q-27 -6 -121 -7t-113 3q-88 14 -137 63q-70 70 -295 436q-84 141 -182 142q-6 0 -6 -8q0 -297 4 -478q2 -51 16 -72.5t55 -31.5q18 -6 86 -14q4 -4 4.5 -16.5t-6.5 -16.5q-6 0 -41.5 1t-92 3t-111.5 2q-29 0 -213 -6q-6 0 -6 14.5t4 18.5l61 10q53 8 68.5 37.5t19.5 115.5 q2 94 2 441q-117 -10 -178 -101q-37 -53 -138.5 -215.5t-115.5 -183.5q-59 -74 -97 -99.5t-95 -33.5q-94 -10 -222 -4q-6 2 -6 15.5z" />
<glyph unicode="&#x4dd;" horiz-adv-x="1210" d="M385 1001q0 31 8 48q29 29 76 28q37 0 49 -18q14 -14 15 -43q0 -57 -39 -76q-8 -4 -34 -6t-34 2q-41 16 -41 65zM688 1001q0 31 9 48q29 29 75 28q37 0 49 -18q14 -14 15 -43q0 -57 -39 -76q-8 -4 -33.5 -6t-34.5 2q-41 16 -41 65zM-31 9.5q0 13.5 4 15.5q57 6 82 19 t62 60q18 25 77.5 111t92.5 129q35 49 96 72q-41 35 -98 162q-33 72 -56.5 92t-52.5 20q-33 0 -108 -31q-12 0 -13 9q0 78 17 110q18 33 67 33q53 0 92 -37t91 -170q31 -78 65 -131q43 -59 148 -59q0 213 -5 282q-2 49 -47 58q-6 2 -25.5 5t-31.5 7q-6 14 4 27 q8 0 69.5 -3.5t96.5 -3.5q37 0 76 2.5t66.5 3.5t31.5 1q12 -14 0 -27q-14 -4 -29.5 -7t-23.5 -5q-16 -4 -24.5 -8.5t-14.5 -19.5t-6 -44l-2 -268q70 2 105.5 18.5t60.5 52.5q31 47 59 117q55 131 96 170t90 39q43 0 62 -25q4 -25 -23 -116q-6 -6 -14 -2q-45 20 -80 20 q-23 0 -42 -20.5t-52 -89.5q-55 -119 -103 -156q61 -25 89 -60q35 -47 94 -139t82 -123q33 -43 55 -55t86 -16q2 -2 2 -16.5t-4 -16.5q-25 -4 -158 -4q-78 0 -123 59q-29 43 -84 139.5t-67 116.5q-47 74 -131 76q0 -178 4 -293q2 -43 51 -55q14 -4 37.5 -7t30.5 -5 q4 -4 2 -15.5t-7 -13.5q-2 0 -66.5 3t-113.5 3q-43 0 -115.5 -3t-74.5 -3q-12 16 0 29q12 4 33.5 8t33.5 6q43 10 45 47q4 23 5 299q-53 -2 -81 -22.5t-57 -65.5q-135 -221 -164 -254q-47 -51 -192 -51q-35 0 -68 4q-4 2 -4 15.5z" />
<glyph unicode="&#x4de;" horiz-adv-x="944" d="M227 1476q0 31 8 48q29 29 76 28q37 0 49 -18q14 -14 15 -43q0 -57 -39 -76q-8 -4 -34 -6t-34 2q-41 16 -41 65zM530 1476q0 31 9 48q29 29 75 28q37 0 49 -18q14 -14 15 -43q0 -57 -39 -76q-8 -4 -33.5 -6t-34.5 2q-41 16 -41 65zM49 276q2 4 15.5 10.5t17.5 4.5 q78 -236 260 -277q41 -10 88 -10q125 0 192.5 78t67.5 229q0 322 -305 322q-33 0 -76 -6q-2 0 -4 5t0 7l27 47q20 -2 59 -2q233 0 234 258q0 127 -56.5 207t-171.5 80q-92 0 -154.5 -55.5t-109.5 -206.5q-4 -2 -18.5 2t-16.5 8q18 94 35 248q51 10 98 20q135 33 222 33 q176 0 260 -80t84 -215q0 -98 -61.5 -176t-162.5 -117q-4 -4 0 -8q133 -33 218.5 -113t85.5 -207q0 -182 -138.5 -292.5t-347.5 -110.5q-133 0 -274 53q-14 16 -37 108.5t-31 155.5z" />
<glyph unicode="&#x4df;" horiz-adv-x="700" d="M112 1001q0 31 8 48q29 29 76 28q37 0 49 -18q14 -14 15 -43q0 -57 -39 -76q-8 -4 -34 -6t-34 2q-41 16 -41 65zM415 1001q0 31 9 48q29 29 75 28q37 0 49 -18q14 -14 15 -43q0 -57 -39 -76q-8 -4 -33.5 -6t-34.5 2q-41 16 -41 65zM55 213q2 4 14.5 8t16.5 2 q55 -201 250 -200q145 0 145 182q0 78 -49 128t-139 50q-23 0 -68 -4q14 35 19 67q16 -4 57 -4q74 0 106.5 34t32.5 108q0 94 -41 139t-106 45q-68 0 -108 -48t-74 -145q-4 -4 -16.5 0.5t-14.5 8.5q2 10 8 53t11 82t5 51q10 2 56.5 13.5t92.5 19.5t85 8q121 0 187.5 -48 t66.5 -142q0 -127 -150 -181q-4 -4 0 -6q88 -18 144.5 -67.5t56.5 -128.5q0 -90 -59.5 -151.5t-135 -85.5t-155.5 -24q-121 0 -199 43q-27 41 -39 193z" />
<glyph unicode="&#x4e2;" horiz-adv-x="1441" d="M45 10.5q0 12.5 4 16.5q72 6 101 16q29 8 43 27.5t17 43t5 81.5q2 66 2 446q0 406 -4 475q-6 74 -45 86q-33 10 -117 21q-8 16 2 32q2 0 80 -3t164 -3q47 0 225 6q2 -4 2 -16t-4 -16q-57 -6 -86 -15q-31 -10 -42 -27.5t-13 -64.5q-4 -76 -4 -840q0 -4 3 -5t7 3 q8 10 87 101.5t165 192t180 212t160.5 192.5t79.5 99q10 16 10 29v39q-2 53 -43 65q-33 10 -104 19q-6 4 -5.5 16t5.5 16q14 0 93 -3t142 -3q55 0 134 3t93 3q4 -2 3 -15t-5 -17q-12 -2 -32.5 -5.5t-36 -5.5t-25.5 -6q-33 -10 -44 -30.5t-13 -75.5q-4 -152 -4 -467 q0 -410 6 -488q4 -47 13 -68.5t36 -29.5q31 -12 117 -20q0 -29 -6 -33q-35 0 -107 3t-129 3q-90 0 -244 -6q-4 4 -4 16.5t4 16.5q96 10 113 20q23 8 31 30.5t10 69.5q2 61 2 836q0 4 -5 5t-7 -3q-18 -27 -341 -403.5t-327 -382.5q-12 -12 -12 -35q2 -63 13 -86t46 -33 q45 -14 98 -18q2 -4 1 -17.5t-5 -15.5q-39 0 -109.5 3t-117.5 3q-98 0 -252 -6q-4 4 -4 16.5zM502 1397q0 8 7 26.5t15 34.5l6 19q41 -4 101 -4h319q0 -16 -11 -44t-17 -30q-43 -6 -349 -6z" />
<glyph unicode="&#x4e3;" horiz-adv-x="956" d="M33 10.5q0 14.5 2 16.5q61 10 69 12q29 8 37.5 31.5t8.5 87.5q0 45 1 142t1 146q0 92 -5 244q-2 49 -45 60q-29 6 -63 10q-4 23 4 33q2 0 59.5 -3.5t112.5 -3.5q39 0 81 2.5t69.5 3.5t31.5 1q4 -6 5 -17.5t-3 -13.5q-25 -2 -63 -12q-41 -10 -43 -76v-418q0 -14 8 -6 q43 43 176 194.5t172 204.5q10 14 10 31q-2 59 -45 72q-12 2 -55 10q-2 2 0 14t4 15q74 -4 162 -5q70 0 186 7q2 -4 2 -15.5t-2 -15.5q-53 -8 -71 -14q-35 -10 -35 -66q-4 -90 -3 -302t5 -282q4 -39 31 -51q25 -10 100 -20q2 -4 2 -17.5t-4 -15.5q-2 0 -83 4t-128 2 q-121 -4 -139 -6q-4 4 -4 14t2 15q49 16 64.5 29.5t15.5 45.5v482q0 2 -2.5 4t-6.5 0q-27 -35 -350 -404q-10 -10 -10 -37q2 -57 8 -74.5t27 -25.5q41 -12 86 -16q2 -2 0 -16.5t-4 -16.5q-4 0 -73 3t-124 3q-39 0 -104.5 -3t-75.5 -3q-2 2 -2 16.5zM279 1020q0 8 24 80 q16 -4 84 -4h291q0 -16 -10.5 -44t-14.5 -30q-25 -6 -319 -6q-39 0 -55 4z" />
<glyph unicode="&#x4e4;" horiz-adv-x="1441" d="M493 1476q0 31 8 48q29 29 76 28q37 0 49 -18q14 -14 15 -43q0 -57 -39 -76q-8 -4 -34 -6t-34 2q-41 16 -41 65zM796 1476q0 31 9 48q29 29 75 28q37 0 49 -18q14 -14 15 -43q0 -57 -39 -76q-8 -4 -33.5 -6t-34.5 2q-41 16 -41 65zM45 10.5q0 12.5 4 16.5q72 6 101 16 q29 8 43 27.5t17 43t5 81.5q2 66 2 446q0 406 -4 475q-6 74 -45 86q-33 10 -117 21q-8 16 2 32q2 0 80 -3t164 -3q47 0 225 6q2 -4 2 -16t-4 -16q-57 -6 -86 -15q-31 -10 -42 -27.5t-13 -64.5q-4 -76 -4 -840q0 -4 3 -5t7 3q8 10 87 101.5t165 192t180 212t160.5 192.5 t79.5 99q10 16 10 29v39q-2 53 -43 65q-33 10 -104 19q-6 4 -5.5 16t5.5 16q14 0 93 -3t142 -3q55 0 134 3t93 3q4 -2 3 -15t-5 -17q-12 -2 -32.5 -5.5t-36 -5.5t-25.5 -6q-33 -10 -44 -30.5t-13 -75.5q-4 -152 -4 -467q0 -410 6 -488q4 -47 13 -68.5t36 -29.5 q31 -12 117 -20q0 -29 -6 -33q-35 0 -107 3t-129 3q-90 0 -244 -6q-4 4 -4 16.5t4 16.5q96 10 113 20q23 8 31 30.5t10 69.5q2 61 2 836q0 4 -5 5t-7 -3q-18 -27 -341 -403.5t-327 -382.5q-12 -12 -12 -35q2 -63 13 -86t46 -33q45 -14 98 -18q2 -4 1 -17.5t-5 -15.5 q-39 0 -109.5 3t-117.5 3q-98 0 -252 -6q-4 4 -4 16.5z" />
<glyph unicode="&#x4e5;" horiz-adv-x="956" d="M252 1001q0 31 8 48q29 29 76 28q37 0 49 -18q14 -14 15 -43q0 -57 -39 -76q-8 -4 -34 -6t-34 2q-41 16 -41 65zM555 1001q0 31 9 48q29 29 75 28q37 0 49 -18q14 -14 15 -43q0 -57 -39 -76q-8 -4 -33.5 -6t-34.5 2q-41 16 -41 65zM33 10.5q0 14.5 2 16.5q61 10 69 12 q29 8 37.5 31.5t8.5 87.5q0 45 1 142t1 146q0 92 -5 244q-2 49 -45 60q-29 6 -63 10q-4 23 4 33q2 0 59.5 -3.5t112.5 -3.5q39 0 81 2.5t69.5 3.5t31.5 1q4 -6 5 -17.5t-3 -13.5q-25 -2 -63 -12q-41 -10 -43 -76v-418q0 -14 8 -6q43 43 176 194.5t172 204.5q10 14 10 31 q-2 59 -45 72q-12 2 -55 10q-2 2 0 14t4 15q74 -4 162 -5q70 0 186 7q2 -4 2 -15.5t-2 -15.5q-53 -8 -71 -14q-35 -10 -35 -66q-4 -90 -3 -302t5 -282q4 -39 31 -51q25 -10 100 -20q2 -4 2 -17.5t-4 -15.5q-2 0 -83 4t-128 2q-121 -4 -139 -6q-4 4 -4 14t2 15 q49 16 64.5 29.5t15.5 45.5v482q0 2 -2.5 4t-6.5 0q-27 -35 -350 -404q-10 -10 -10 -37q2 -57 8 -74.5t27 -25.5q41 -12 86 -16q2 -2 0 -16.5t-4 -16.5q-4 0 -73 3t-124 3q-39 0 -104.5 -3t-75.5 -3q-2 2 -2 16.5z" />
<glyph unicode="&#x4e6;" horiz-adv-x="1474" d="M530 1476q0 31 8 48q29 29 76 28q37 0 49 -18q14 -14 15 -43q0 -57 -39 -76q-8 -4 -34 -6t-34 2q-41 16 -41 65zM833 1476q0 31 9 48q29 29 75 28q37 0 49 -18q14 -14 15 -43q0 -57 -39 -76q-8 -4 -33.5 -6t-34.5 2q-41 16 -41 65zM100 635q0 213 113 381 q86 123 235.5 196.5t307.5 73.5q293 0 455.5 -185.5t162.5 -453.5q0 -240 -121 -416q-86 -129 -228 -198.5t-300 -69.5q-133 0 -252 52.5t-199 138.5q-174 192 -174 481zM281 682q0 -170 63.5 -328.5t192.5 -249.5q111 -78 264 -77q139 0 227 77q174 150 174 478 q0 168 -58.5 319.5t-176.5 237.5q-117 90 -275 90q-104 0 -196 -51q-109 -66 -162 -198t-53 -298z" />
<glyph unicode="&#x4e7;" horiz-adv-x="946" d="M276 1001q0 31 8 48q29 29 76 28q37 0 49 -18q14 -14 15 -43q0 -57 -39 -76q-8 -4 -34 -6t-34 2q-41 16 -41 65zM579 1001q0 31 9 48q29 29 75 28q37 0 49 -18q14 -14 15 -43q0 -57 -39 -76q-8 -4 -33.5 -6t-34.5 2q-41 16 -41 65zM74 401q0 215 174 332q113 78 254 78 q174 0 273 -112.5t99 -286.5q0 -113 -48 -210.5t-138 -154.5q-104 -72 -223 -72q-137 0 -228.5 65.5t-127 157.5t-35.5 203zM231 449q0 -182 79 -299t204 -117q78 0 125 45q78 80 78 270q0 178 -75 293t-206 115q-66 0 -102 -31q-103 -69 -103 -276z" />
<glyph unicode="&#x4e8;" horiz-adv-x="1474" d="M100 635q0 219 111 381q86 125 232.5 197.5t316.5 72.5q291 0 451.5 -184t160.5 -455q0 -250 -119 -420q-86 -129 -227 -197.5t-301 -68.5q-137 0 -259 51t-200 138q-166 186 -166 485zM274 694q0 -25 15 -26q70 -6 499 -6q358 0 408 4q4 0 4 10q-14 147 -71.5 272 t-155.5 197q-113 88 -277 88q-113 0 -196 -51q-106 -66 -164 -195t-62 -293zM281 586q29 -340 239 -488q111 -78 271 -78q143 0 229 74q186 158 186 488v32q-51 -20 -442 -20q-100 0 -278.5 1t-196.5 1q-8 0 -8 -10z" />
<glyph unicode="&#x4e9;" horiz-adv-x="952" d="M72 401q0 215 174 332q121 78 258 78q174 0 274.5 -113.5t100.5 -285.5q0 -248 -183 -361q-104 -74 -231 -74q-199 0 -296 124t-97 300zM225 444q0 -10 8 -10q41 -4 232.5 -5t257.5 3q-14 162 -86 244t-188 82q-104 0 -165 -84.5t-59 -229.5zM227 373q10 -168 89 -254 t192 -86q111 0 163 86t56 268q-33 -18 -225 -18q-228 0 -275 4z" />
<glyph unicode="&#x4ea;" horiz-adv-x="1474" d="M534 1476q0 31 8 48q29 29 76 28q37 0 49 -18q14 -14 15 -43q0 -57 -39 -76q-8 -4 -34 -6t-34 2q-41 16 -41 65zM837 1476q0 31 9 48q29 29 75 28q37 0 49 -18q14 -14 15 -43q0 -57 -39 -76q-8 -4 -33.5 -6t-34.5 2q-41 16 -41 65zM100 635q0 219 111 381 q86 125 232.5 197.5t316.5 72.5q291 0 451.5 -184t160.5 -455q0 -250 -119 -420q-86 -129 -227 -197.5t-301 -68.5q-137 0 -259 51t-200 138q-166 186 -166 485zM274 694q0 -25 15 -26q70 -6 499 -6q358 0 408 4q4 0 4 10q-14 147 -71.5 272t-155.5 197q-113 88 -277 88 q-113 0 -196 -51q-106 -66 -164 -195t-62 -293zM281 586q29 -340 239 -488q111 -78 271 -78q143 0 229 74q186 158 186 488v32q-51 -20 -442 -20q-100 0 -278.5 1t-196.5 1q-8 0 -8 -10z" />
<glyph unicode="&#x4eb;" horiz-adv-x="952" d="M278 1001q0 31 8 48q29 29 76 28q37 0 49 -18q14 -14 15 -43q0 -57 -39 -76q-8 -4 -34 -6t-34 2q-41 16 -41 65zM581 1001q0 31 9 48q29 29 75 28q37 0 49 -18q14 -14 15 -43q0 -57 -39 -76q-8 -4 -33.5 -6t-34.5 2q-41 16 -41 65zM72 401q0 215 174 332q121 78 258 78 q174 0 274.5 -113.5t100.5 -285.5q0 -248 -183 -361q-104 -74 -231 -74q-199 0 -296 124t-97 300zM225 444q0 -10 8 -10q41 -4 232.5 -5t257.5 3q-14 162 -86 244t-188 82q-104 0 -165 -84.5t-59 -229.5zM227 373q10 -168 89 -254t192 -86q111 0 163 86t56 268 q-33 -18 -225 -18q-228 0 -275 4z" />
<glyph unicode="&#x4ec;" horiz-adv-x="1273" d="M297 1476q0 31 8 48q29 29 76 28q37 0 49 -18q14 -14 15 -43q0 -57 -39 -76q-8 -4 -34 -6t-34 2q-41 16 -41 65zM600 1476q0 31 9 48q29 29 75 28q37 0 49 -18q14 -14 15 -43q0 -57 -39 -76q-8 -4 -33.5 -6t-34.5 2q-41 16 -41 65zM86 270q2 6 14.5 13.5t18.5 5.5 q72 -156 172 -213.5t231 -57.5q221 0 339 148.5t128 433.5q0 10 -8 10q-238 -16 -479 -16q-80 0 -105 4q-8 4 -4 12t30 39t34 33q55 -14 301 -20q117 -2 223 0q6 0 6 8q-6 258 -131 414.5t-344 156.5q-133 0 -206 -38t-116 -122q-10 -20 -47 -123q-6 -2 -20 2.5t-17 10.5 q35 150 44 278q29 0 100 11q229 27 272 26q154 0 272.5 -39t188.5 -100.5t115 -146.5t60.5 -167.5t15.5 -177.5q0 -317 -186.5 -504.5t-504.5 -187.5q-141 0 -284 45q-23 18 -58 102t-55 160z" />
<glyph unicode="&#x4ed;" horiz-adv-x="790" d="M137 1001q0 31 8 48q29 29 76 28q37 0 49 -18q14 -14 15 -43q0 -57 -39 -76q-8 -4 -34 -6t-34 2q-41 16 -41 65zM440 1001q0 31 9 48q29 29 75 28q37 0 49 -18q14 -14 15 -43q0 -57 -39 -76q-8 -4 -33.5 -6t-34.5 2q-41 16 -41 65zM41 215q2 4 13.5 10t13.5 4 q88 -203 274 -202q111 0 167 101t52 249q-111 -12 -276 -12q-72 0 -82 6q-6 6 0 14l57 55q78 -23 270 -22h31q-6 152 -78.5 243t-189.5 91q-63 0 -107 -27q-47 -27 -100 -150q-4 -2 -11 0.5t-13.5 5.5t-6.5 7q23 119 45 166q111 57 262 57q176 0 266.5 -116.5t90.5 -282.5 q0 -209 -131 -330q-109 -102 -291 -102q-125 0 -197 40q-43 52 -59 195z" />
<glyph unicode="&#x4ee;" horiz-adv-x="1112" d="M-33 1239q0 12 4 16q14 0 100.5 -3t135.5 -3q63 0 135 3t74 3q4 -6 4 -18t-4 -14q-88 -16 -92 -19q-20 -8 -13 -33q37 -90 168 -369.5t160 -332.5q4 -12 10 0q80 156 165 365.5t106 300.5q10 49 -31 65q-39 14 -111 23q-4 4 -4 17t6 15l185 -6q41 0 111.5 3t84.5 3 q4 -4 3 -16t-5 -16q-86 -12 -114.5 -37t-69.5 -121q-229 -543 -391 -838q-156 -297 -299 -297q-47 0 -78 27q-45 49 -41 133q0 20 10 27q98 -51 172 -51q57 0 98 39.5t97 152.5q2 6 -4 37q-190 440 -363 778q-45 90 -74.5 113.5t-132.5 36.5q-2 4 -2 16zM358 1397 q0 8 7.5 26.5t15.5 34.5l6 19q41 -4 100 -4h320q0 -16 -11.5 -44t-17.5 -30q-43 -6 -348 -6z" />
<glyph unicode="&#x4ef;" horiz-adv-x="806" d="M-19 774q1 12 5 14q6 0 61 -3t121 -3q49 0 111.5 3t66.5 3q4 -4 4 -15t-2 -15q-55 -12 -67 -17q-20 -10 -15 -30q14 -51 98.5 -273.5t100.5 -255.5h4q147 328 174 496q8 49 -39 63l-82 17q-2 4 -1 16t5 14q8 0 68.5 -3t97.5 -3q10 0 158 6q4 -2 4 -14t-4 -16 q-51 -10 -64 -17q-47 -16 -73 -84q-219 -598 -492 -1089l-71 -115l-11 -4q-57 14 -78 49q-6 12 -2 21q223 279 320 487q-12 29 -17 37q-106 289 -200 520q-41 102 -60.5 135t-52.5 43q-29 10 -67 17q-2 4 -1 16zM244 1020q2 8 24 80q16 -4 84 -4h291q0 -16 -10 -44t-15 -30 q-25 -6 -319 -6q-39 0 -55 4z" />
<glyph unicode="&#x4f0;" horiz-adv-x="1112" d="M342 1476q0 31 8 48q29 29 76 28q37 0 49 -18q14 -14 15 -43q0 -57 -39 -76q-8 -4 -34 -6t-34 2q-41 16 -41 65zM645 1476q0 31 9 48q29 29 75 28q37 0 49 -18q14 -14 15 -43q0 -57 -39 -76q-8 -4 -33.5 -6t-34.5 2q-41 16 -41 65zM-33 1239q0 12 4 16q14 0 100.5 -3 t135.5 -3q63 0 135 3t74 3q4 -6 4 -18t-4 -14q-88 -16 -92 -19q-20 -8 -13 -33q37 -90 168 -369.5t160 -332.5q4 -12 10 0q80 156 165 365.5t106 300.5q10 49 -31 65q-39 14 -111 23q-4 4 -4 17t6 15l185 -6q41 0 111.5 3t84.5 3q4 -4 3 -16t-5 -16q-86 -12 -114.5 -37 t-69.5 -121q-229 -543 -391 -838q-156 -297 -299 -297q-47 0 -78 27q-45 49 -41 133q0 20 10 27q98 -51 172 -51q57 0 98 39.5t97 152.5q2 6 -4 37q-190 440 -363 778q-45 90 -74.5 113.5t-132.5 36.5q-2 4 -2 16z" />
<glyph unicode="&#x4f1;" horiz-adv-x="806" d="M192 1001q0 31 8 48q29 29 76 28q37 0 49 -18q14 -14 15 -43q0 -57 -39 -76q-8 -4 -34 -6t-34 2q-41 16 -41 65zM495 1001q0 31 9 48q29 29 75 28q37 0 49 -18q14 -14 15 -43q0 -57 -39 -76q-8 -4 -33.5 -6t-34.5 2q-41 16 -41 65zM-19 774q1 12 5 14q6 0 61 -3t121 -3 q49 0 111.5 3t66.5 3q4 -4 4 -15t-2 -15q-55 -12 -67 -17q-20 -10 -15 -30q14 -51 98.5 -273.5t100.5 -255.5h4q147 328 174 496q8 49 -39 63l-82 17q-2 4 -1 16t5 14q8 0 68.5 -3t97.5 -3q10 0 158 6q4 -2 4 -14t-4 -16q-51 -10 -64 -17q-47 -16 -73 -84 q-219 -598 -492 -1089l-71 -115l-11 -4q-57 14 -78 49q-6 12 -2 21q223 279 320 487q-12 29 -17 37q-106 289 -200 520q-41 102 -60.5 135t-52.5 43q-29 10 -67 17q-2 4 -1 16z" />
<glyph unicode="&#x4f2;" horiz-adv-x="1112" d="M442 1421q14 41 37.5 110t40 120t22.5 63q12 4 47 7.5t45 0.5q8 -4 5 -12q-57 -117 -170 -301q-6 -2 -15.5 3t-11.5 9zM661 1434q18 49 58 171t42 128q59 16 97 6q2 -2 2 -10q-14 -31 -77 -144.5t-95 -163.5q-4 -4 -14.5 1.5t-12.5 11.5zM-33 1239q0 12 4 16 q14 0 100.5 -3t135.5 -3q63 0 135 3t74 3q4 -6 4 -18t-4 -14q-88 -16 -92 -19q-20 -8 -13 -33q37 -90 168 -369.5t160 -332.5q4 -12 10 0q80 156 165 365.5t106 300.5q10 49 -31 65q-39 14 -111 23q-4 4 -4 17t6 15l185 -6q41 0 111.5 3t84.5 3q4 -4 3 -16t-5 -16 q-86 -12 -114.5 -37t-69.5 -121q-229 -543 -391 -838q-156 -297 -299 -297q-47 0 -78 27q-45 49 -41 133q0 20 10 27q98 -51 172 -51q57 0 98 39.5t97 152.5q2 6 -4 37q-190 440 -363 778q-45 90 -74.5 113.5t-132.5 36.5q-2 4 -2 16z" />
<glyph unicode="&#x4f3;" horiz-adv-x="806" d="M295 946q14 41 37.5 110t40 120t22.5 63q12 4 47 7.5t45 0.5q8 -4 5 -12q-57 -117 -170 -301q-6 -2 -15.5 3t-11.5 9zM514 959q18 49 58 171t42 128q59 16 97 6q2 -2 2 -10q-14 -31 -77 -144.5t-95 -163.5q-4 -4 -14.5 1.5t-12.5 11.5zM-19 774q1 12 5 14q6 0 61 -3 t121 -3q49 0 111.5 3t66.5 3q4 -4 4 -15t-2 -15q-55 -12 -67 -17q-20 -10 -15 -30q14 -51 98.5 -273.5t100.5 -255.5h4q147 328 174 496q8 49 -39 63l-82 17q-2 4 -1 16t5 14q8 0 68.5 -3t97.5 -3q10 0 158 6q4 -2 4 -14t-4 -16q-51 -10 -64 -17q-47 -16 -73 -84 q-219 -598 -492 -1089l-71 -115l-11 -4q-57 14 -78 49q-6 12 -2 21q223 279 320 487q-12 29 -17 37q-106 289 -200 520q-41 102 -60.5 135t-52.5 43q-29 10 -67 17q-2 4 -1 16z" />
<glyph unicode="&#x4f4;" horiz-adv-x="1220" d="M364 1476q0 31 8 48q29 29 76 28q37 0 49 -18q14 -14 15 -43q0 -57 -39 -76q-8 -4 -34 -6t-34 2q-41 16 -41 65zM667 1476q0 31 9 48q29 29 75 28q37 0 49 -18q14 -14 15 -43q0 -57 -39 -76q-8 -4 -33.5 -6t-34.5 2q-41 16 -41 65zM20 1223q-8 18 3 32q12 0 83.5 -3 t143.5 -3q55 0 127 3t76 3q2 -2 2 -15t-2 -17q-72 -10 -91.5 -25.5t-23.5 -48.5q-6 -53 0 -250q2 -86 29.5 -143.5t76 -81t88 -30.5t95.5 -7q125 0 215 45q4 4 4 10q0 379 -4 430q-2 43 -15.5 60.5t-50.5 27.5q-25 6 -80 13q-4 4 -4 17t4 15q27 0 102.5 -3t129.5 -3 q70 0 143.5 3t85.5 3q4 -4 5 -16t-3 -16q-74 -12 -88 -17q-35 -10 -47 -29.5t-14 -72.5q-6 -276 -6 -465q2 -432 6 -512q4 -37 16 -56.5t51 -29.5q31 -8 97 -14q4 -4 2 -17.5t-7 -15.5q-23 0 -97.5 3t-129.5 3q-66 0 -145.5 -3t-106.5 -3q-2 2 -2 16.5t2 16.5q59 4 88 10 q43 10 53.5 38.5t12.5 121.5q2 106 2 440q0 2 -2 6t-4 2q-164 -86 -316 -86q-211 0 -299 117q-49 66 -49 227q-2 150 -2 199q0 47 -14.5 72.5t-57.5 35.5q-21 5 -82 13z" />
<glyph unicode="&#x4f5;" horiz-adv-x="831" d="M170 1001q0 31 8 48q29 29 76 28q37 0 49 -18q14 -14 15 -43q0 -57 -39 -76q-8 -4 -34 -6t-34 2q-41 16 -41 65zM473 1001q0 31 9 48q29 29 75 28q37 0 49 -18q14 -14 15 -43q0 -57 -39 -76q-8 -4 -33.5 -6t-34.5 2q-41 16 -41 65zM-4 760q-4 23 4 33q2 0 59.5 -3.5 t112.5 -3.5q39 0 75 2.5t58.5 3.5t26.5 1q4 -6 5 -18.5t-3 -14.5q-55 -8 -69.5 -17.5t-16.5 -42.5v-172q12 -137 174 -137q70 0 123 25v132q0 112 -4 148q0 41 -45 54q-6 2 -31 6t-31 6q-2 4 -2 16.5t4 14.5q10 0 73.5 -3.5t108.5 -3.5q53 0 173 7q2 -4 2 -16.5t-2 -14.5 l-33 -4q-27 -4 -39 -9.5t-22.5 -21.5t-12.5 -45q-2 -47 -2 -270q0 -59 1 -170t1 -129q2 -37 13.5 -52.5t39.5 -21.5q37 -8 72 -12q4 -2 3 -16.5t-5 -16.5q-8 0 -75.5 3t-125.5 3q-37 0 -106.5 -3t-77.5 -3q-4 4 -5 15t3 16q8 2 21.5 4t27.5 4t31 6q37 10 41 63q6 96 4 279 q-113 -59 -223 -59q-104 0 -158 45q-57 51 -60 149q-2 37 -2 172q-4 51 -45 60q-16 4 -61 12z" />
<glyph unicode="&#x4f8;" horiz-adv-x="1540" d="M526 1476q0 31 8 48q29 29 76 28q37 0 49 -18q14 -14 15 -43q0 -57 -39 -76q-8 -4 -34 -6t-34 2q-41 16 -41 65zM829 1476q0 31 9 48q29 29 75 28q37 0 49 -18q14 -14 15 -43q0 -57 -39 -76q-8 -4 -33.5 -6t-34.5 2q-41 16 -41 65zM32 9.5q1 13.5 5 17.5q92 8 123 18 q29 10 38 29.5t13 75.5q6 96 6 485q0 412 -6 489q-2 41 -12.5 57.5t-34.5 24.5q-33 12 -103 17q-4 2 -3 16t5 16q29 0 72 -2t81 -3t77 -1q51 0 129 3t96 3q2 -4 2 -16t-2 -16q-53 -6 -88 -15q-33 -10 -43 -30.5t-12 -79.5q-4 -160 -4 -377l6 -8q104 8 203 8q197 0 292 -94.5 t95 -239.5q0 -123 -62.5 -215t-181.5 -141q-104 -43 -295 -43q-41 0 -183.5 3t-209.5 3q-4 2 -3 15.5zM371 651q0 -432 4 -518q4 -37 26 -53q49 -39 146 -39q123 0 184.5 77t61.5 216q0 168 -76 252t-242 84q-55 0 -96 -4q-8 -1 -8 -15zM981 9q0 11 4 16q53 4 92 16 q37 10 48.5 29.5t15.5 64.5q6 90 6 555q0 319 -4 416q-10 72 -31 88q-8 6 -22 10q-27 10 -97 19q-4 4 -3 16t5 16q16 0 98.5 -3t139.5 -3q61 0 127.5 3t81.5 3q4 -4 4 -16t-4 -16q-29 -4 -76 -15q-33 -10 -43 -31.5t-14 -76.5q-6 -121 -6 -459q0 -350 4 -485q2 -37 6 -54.5 t17 -35t40 -23.5q29 -8 105 -16q4 -4 3 -16.5t-5 -16.5q-25 0 -101 3t-127 3q-61 0 -137 -3t-123 -3q-4 4 -4 15z" />
<glyph unicode="&#x4f9;" horiz-adv-x="1116" d="M334 1001q0 31 8 48q29 29 76 28q37 0 49 -18q14 -14 15 -43q0 -57 -39 -76q-8 -4 -34 -6t-34 2q-41 16 -41 65zM637 1001q0 31 9 48q29 29 75 28q37 0 49 -18q14 -14 15 -43q0 -57 -39 -76q-8 -4 -33.5 -6t-34.5 2q-41 16 -41 65zM32 10.5q-1 12.5 1 16.5q53 8 71 12 q43 10 48 86q4 170 2 319q0 186 -4 248q-2 47 -48 56q-10 2 -63 12q-4 23 4 33q2 0 59.5 -3.5t112.5 -3.5q39 0 81 2.5t69.5 3.5t31.5 1q4 -6 5 -18.5t-3 -14.5q-25 -2 -63 -12q-41 -10 -41 -56l-2 -200q61 6 139 6q111 0 189.5 -58.5t78.5 -177.5q0 -154 -129 -227 q-86 -47 -260 -45q-80 0 -276 4q-2 4 -3 16.5zM291 451q0 -303 6 -361q2 -27 33.5 -44t58.5 -17q70 0 119 58t49 146q0 111 -71.5 166.5t-194.5 51.5zM710 10.5q-1 12.5 3 16.5q35 4 75 14q33 8 35 68q4 78 4 292q0 23 -1 90.5t-2 131t-1 67.5q0 45 -47 60q-6 2 -30.5 6 t-30.5 6q-2 2 -1 15.5t5 15.5q10 0 73.5 -3.5t108.5 -3.5q70 0 174 7q2 -2 2 -16.5t-2 -14.5l-37 -6q-37 -6 -51 -21.5t-16 -52.5q-2 -47 -2 -272q0 -61 1 -172t1 -127q0 -59 61 -74q27 -6 64 -10q4 -2 3 -17.5t-5 -15.5q-27 0 -88.5 3t-98.5 3q-41 0 -115.5 -3t-76.5 -3 q-4 4 -5 16.5z" />
<glyph unicode="&#x2000;" horiz-adv-x="870" />
<glyph unicode="&#x2001;" horiz-adv-x="1740" />
<glyph unicode="&#x2002;" horiz-adv-x="870" />
<glyph unicode="&#x2003;" horiz-adv-x="1740" />
<glyph unicode="&#x2004;" horiz-adv-x="579" />
<glyph unicode="&#x2005;" horiz-adv-x="434" />
<glyph unicode="&#x2006;" horiz-adv-x="288" />
<glyph unicode="&#x2007;" horiz-adv-x="288" />
<glyph unicode="&#x2008;" horiz-adv-x="217" />
<glyph unicode="&#x2009;" horiz-adv-x="348" />
<glyph unicode="&#x200a;" horiz-adv-x="96" />
<glyph unicode="&#x2010;" horiz-adv-x="522" d="M66 373q0 16 7 47t13 31q82 0 369 10v-8l2 -7q-6 -72 -25 -75q-12 -2 -167.5 -7.5t-196.5 -5.5q-2 13 -2 15z" />
<glyph unicode="&#x2011;" horiz-adv-x="522" d="M66 373q0 16 7 47t13 31q82 0 369 10v-8l2 -7q-6 -72 -25 -75q-12 -2 -167.5 -7.5t-196.5 -5.5q-2 13 -2 15z" />
<glyph unicode="&#x2012;" horiz-adv-x="522" d="M66 373q0 16 7 47t13 31q82 0 369 10v-8l2 -7q-6 -72 -25 -75q-12 -2 -167.5 -7.5t-196.5 -5.5q-2 13 -2 15z" />
<glyph unicode="&#x2013;" horiz-adv-x="1024" d="M61 367q0 8 7.5 29.5t11.5 23.5q10 2 883 2v-4q-4 -53 -13 -56q-12 -2 -438 -3t-449 1q-2 5 -2 7z" />
<glyph unicode="&#x2014;" horiz-adv-x="2048" d="M82 365q0 8 8 30.5t10 24.5q10 2 1866 2v-4q-4 -53 -12 -56q-12 -4 -925.5 -4t-944.5 2z" />
<glyph unicode="&#x2018;" horiz-adv-x="364" d="M63 1090q0 90 72 161.5t152 98.5q4 -2 9 -13.5t3 -13.5q-137 -68 -137 -170q0 -68 88 -98q12 -4 4 -19q-4 -14 -39 -44.5t-51 -30.5q-41 0 -71 38t-30 91z" />
<glyph unicode="&#x2019;" horiz-adv-x="364" d="M63 987q137 70 138 172q0 31 -24.5 57.5t-63.5 36.5q-10 4 -2 20.5t39.5 46.5t50.5 30q41 0 70.5 -36t29.5 -89q0 -90 -72.5 -165t-150.5 -99q-4 0 -10.5 11t-4.5 15z" />
<glyph unicode="&#x201a;" horiz-adv-x="319" d="M-47 -283q170 152 170 281q0 45 -49 135q12 18 50 58t54 47q2 2 11.5 2t11.5 -2q4 -4 12 -19.5t15.5 -45.5t7.5 -62q0 -113 -84 -235t-170 -177q-8 0 -18.5 4t-10.5 8q-2 2 0 6z" />
<glyph unicode="&#x201c;" horiz-adv-x="612" d="M63 1087q0 86 73 162t149 101q4 -2 10 -14.5t4 -14.5q-139 -70 -139 -168q0 -33 25.5 -61.5t62.5 -38.5q10 -4 2 -21q-6 -16 -38 -43.5t-48 -27.5q-45 0 -73 35.5t-28 90.5zM313 1087q0 86 73 162t151 101q2 -2 8 -14.5t4 -14.5q-139 -68 -139 -170q0 -31 24.5 -59.5 t61.5 -38.5q12 -4 4 -21q-4 -14 -38 -42.5t-50 -28.5q-43 0 -71 35.5t-28 90.5z" />
<glyph unicode="&#x201d;" horiz-adv-x="612" d="M63 987q139 68 140 170q0 31 -24.5 58.5t-63.5 39.5q-10 4 -2 21q6 16 37.5 45t50.5 29q43 0 71.5 -37t28.5 -92q0 -90 -71.5 -162t-151.5 -98q-4 0 -10.5 12t-4.5 14zM313 987q139 68 140 170q0 31 -26 58.5t-62 39.5q-8 4 -5 21q6 16 40 45t51 29q43 0 70.5 -37 t27.5 -92q0 -90 -71.5 -162t-149.5 -98q-4 0 -10.5 12t-4.5 14z" />
<glyph unicode="&#x201e;" horiz-adv-x="569" d="M-35 -283q158 141 158 281q0 45 -49 135q12 18 50 58t54 47q2 2 11.5 2t11.5 -2q4 -4 12 -19.5t15.5 -45.5t7.5 -62q0 -113 -80 -236t-162 -176q-23 0 -29 12q-2 2 0 6zM225 -283q158 141 158 281q0 41 -47 135q8 16 47 57t55 48q4 2 12.5 2t12.5 -2q4 -4 11 -19.5 t14.5 -46.5t7.5 -61q0 -115 -79 -237t-163 -175q-23 0 -29 12q-4 2 0 6z" />
<glyph unicode="&#x2022;" horiz-adv-x="655" d="M156 389q0 72 53 123q47 47 119 47q70 0 118 -43q47 -45 48 -131q0 -76 -45 -123q-49 -47 -130 -47q-72 0 -118 45q-45 47 -45 129z" />
<glyph unicode="&#x2026;" horiz-adv-x="2048" d="M406 82q0 41 28.5 69.5t65.5 28.5t61 -24q31 -27 31 -78q0 -41 -27 -66q-33 -29 -71 -28q-33 0 -62 26q-26 27 -26 72zM926 82q0 39 30 70q25 29 64 28.5t63 -24.5q31 -29 31 -78q0 -41 -29 -66q-27 -29 -71 -28q-37 0 -62 24q-26 25 -26 74zM1456 82q0 41 28.5 69.5 t65.5 28.5t62 -24q31 -27 30 -78q0 -41 -26 -66q-29 -29 -72 -28q-35 0 -61.5 26.5t-26.5 71.5z" />
<glyph unicode="&#x202f;" horiz-adv-x="348" />
<glyph unicode="&#x2039;" horiz-adv-x="829" d="M131 371q0 18 10 22q154 61 326 156.5t227 136.5q4 0 4 -6q0 -25 -14 -39q-43 -39 -168 -120t-213 -130q-4 -4 0 -8q55 -29 187.5 -119t187.5 -137l2 -8q0 -8 1 -17.5t1 -13.5q0 -8 -6 -8q-47 39 -248 147.5t-297 143.5z" />
<glyph unicode="&#x203a;" horiz-adv-x="821" d="M131 88q4 25 16 37q53 43 176 125t201 125q4 4 0 8q-68 39 -201 126t-180 130l-2 18q-2 18 -2 23q0 6 6 6q45 -39 245 -147.5t300 -145.5q0 -12 -10 -22q-152 -61 -317.5 -154.5t-225.5 -136.5q-6 0 -6 8z" />
<glyph unicode="&#x205f;" horiz-adv-x="434" />
<glyph unicode="&#x20ac;" d="M53 520q4 37 13 45h69q0 70 2 99h-69q0 27 10 47h61q29 301 213 438q115 86 287 86q55 0 126 -8t99 -8q-14 -129 -12 -234q-4 -4 -15.5 -5t-13.5 1q-20 137 -78 180q-51 35 -135 35q-133 0 -215 -126t-98 -349q0 -12 6 -12h139q88 0 157 1t73 1q6 -25 -8 -45h-363 q-6 0 -6 -11q0 -53 2 -82q0 -8 8 -8h133q84 0 149.5 1t69.5 1q4 -18 -8 -45h-344q-6 0 -6 -10q10 -217 97 -348t233 -131q86 0 133 47q59 53 100 141q6 0 16.5 -6t10.5 -10q-45 -143 -109 -195q-70 -35 -178 -35q-201 0 -325.5 134.5t-139.5 410.5h-84z" />
<glyph unicode="&#x2116;" horiz-adv-x="1593" d="M44 71.5q1 20.5 5 26.5q49 -8 80 -8q61 0 79.5 58.5t18.5 248.5q0 492 -8 568q-10 66 -67 143q-39 57 -103 72q-10 8 0 28l176 4q29 0 58 -47q74 -121 291 -503.5t229 -405.5h4q0 43 -2 233.5t-2 346.5q0 129 32.5 224t69.5 133t68 42q8 0 18 -10.5t14.5 -18.5t0.5 -12 q-57 -23 -85 -57.5t-41.5 -113.5t-13.5 -226q0 -63 1 -280.5t1 -270.5q0 -170 17 -242q-10 -8 -51 -19.5t-48 -9.5q-330 631 -495 912h-4v-508q0 -139 -30 -238.5t-64.5 -136.5t-65.5 -39q-59 2 -82 78q-2 8 -1 28.5zM1004 801q0 143 65 229q84 100 213 100q111 0 171 -86 t60 -200q0 -213 -120 -301q-78 -53 -168 -54q-88 0 -154.5 81t-66.5 231zM1022 332q14 18 43 38.5t39 20.5h92q238 6 305 33q2 -4 1 -14.5t-3 -12.5q-20 -33 -108 -55q-117 -25 -365 -25q-4 1 -4 15zM1128 844q0 -145 43 -223t113 -78q117 0 117 260q0 121 -38 204t-114 83 q-121 0 -121 -246z" />
<glyph unicode="&#x2122;" horiz-adv-x="679" d="M45 1122l12 78q25 -8 45 -8h148q31 0 49 4q-8 -20 -12 -80h-17q-4 53 -30 53h-45v-165q0 -23 7 -29t44 -12q2 -4 1 -9.5t-3 -5.5q-4 0 -32 2t-44 2t-44 -2t-30 -2q-2 2 -2 7.5t2 7.5q29 6 36 12t9 22l4 172h-45q-18 0 -41 -51q-2 -2 -7 0t-5 4zM305 956.5q0 6.5 2 8.5 q43 6 47 28q14 100 15 162q0 16 -54 25q-4 8 2 14l93 -2q4 -14 10 -27l67 -137q63 119 72 137q6 8 10 27l88 2q4 -4 0 -14q-29 -2 -36 -9.5t-7 -21.5v-158q0 -12 8.5 -17t34.5 -9q6 -4 0 -15q-10 0 -32.5 1t-34.5 1q-10 0 -32.5 -1t-35.5 -1q-2 2 -2 7.5t2 7.5q25 4 32 9 t7 17l4 142q-66 -131 -86 -181h-16q-27 70 -78 174q-4 -53 -4 -135q0 -20 47 -26q2 -2 2 -7.5t-2 -7.5q-10 0 -30.5 1t-31 1t-30 -1t-29.5 -1q-2 0 -2 6.5z" />
<glyph unicode="&#xe000;" horiz-adv-x="790" d="M0 790h790v-790h-790v790z" />
</font>
</defs>
</svg>
